  0
SECTION
  2
HEADER
  9
$ACADVER
  1
AC1021
  9
$ACADMAINTVER
 70
    25
  9
$DWGCODEPAGE
  3
ANSI_1252
  9
$INSBASE
 10
0.0
 20
0.0
 30
0.0
  9
$EXTMIN
 10
11460.52940998003
 20
6140.562473401018
 30
0.0
  9
$EXTMAX
 10
48075.52940998003
 20
30160.56247340102
 30
0.0
  9
$LIMMIN
 10
9017.5652734375
 20
3279.3975
  9
$LIMMAX
 10
51017.5746648829
 20
32979.4041410935
  9
$ORTHOMODE
 70
     0
  9
$REGENMODE
 70
     1
  9
$FILLMODE
 70
     1
  9
$QTEXTMODE
 70
     0
  9
$MIRRTEXT
 70
     0
  9
$LTSCALE
 40
1.0
  9
$ATTMODE
 70
     1
  9
$TEXTSIZE
 40
200.0
  9
$TRACEWID
 40
1.0
  9
$TEXTSTYLE
  7
Standard
  9
$CLAYER
  8
0
  9
$CELTYPE
  6
ByLayer
  9
$CECOLOR
 62
   256
  9
$CELTSCALE
 40
1.0
  9
$DISPSILH
 70
     0
  9
$DIMSCALE
 40
1.0
  9
$DIMASZ
 40
200.0
  9
$DIMEXO
 40
200.0
  9
$DIMDLI
 40
300.0
  9
$DIMRND
 40
1.0
  9
$DIMDLE
 40
0.0
  9
$DIMEXE
 40
200.0
  9
$DIMTP
 40
0.0
  9
$DIMTM
 40
0.0
  9
$DIMTXT
 40
200.0
  9
$DIMCEN
 40
0.09
  9
$DIMTSZ
 40
0.0
  9
$DIMTOL
 70
     0
  9
$DIMLIM
 70
     0
  9
$DIMTIH
 70
     1
  9
$DIMTOH
 70
     1
  9
$DIMSE1
 70
     1
  9
$DIMSE2
 70
     1
  9
$DIMTAD
 70
     0
  9
$DIMZIN
 70
     0
  9
$DIMBLK
  1

  9
$DIMASO
 70
     0
  9
$DIMSHO
 70
     1
  9
$DIMPOST
  1

  9
$DIMAPOST
  1

  9
$DIMALT
 70
     0
  9
$DIMALTD
 70
     0
  9
$DIMALTF
 40
1.0
  9
$DIMLFAC
 40
1.0
  9
$DIMTOFL
 70
     0
  9
$DIMTVP
 40
0.0
  9
$DIMTIX
 70
     1
  9
$DIMSOXD
 70
     1
  9
$DIMSAH
 70
     0
  9
$DIMBLK1
  1

  9
$DIMBLK2
  1

  9
$DIMSTYLE
  2
Standard
  9
$DIMCLRD
 70
   256
  9
$DIMCLRE
 70
   256
  9
$DIMCLRT
 70
   256
  9
$DIMTFAC
 40
1.0
  9
$DIMGAP
 40
400.0
  9
$DIMJUST
 70
     0
  9
$DIMSD1
 70
     0
  9
$DIMSD2
 70
     0
  9
$DIMTOLJ
 70
     1
  9
$DIMTZIN
 70
     0
  9
$DIMALTZ
 70
     0
  9
$DIMALTTZ
 70
     0
  9
$DIMUPT
 70
     0
  9
$DIMDEC
 70
     4
  9
$DIMTDEC
 70
     4
  9
$DIMALTU
 70
     2
  9
$DIMALTTD
 70
     2
  9
$DIMTXSTY
  7
Standard
  9
$DIMAUNIT
 70
     0
  9
$DIMADEC
 70
     0
  9
$DIMALTRND
 40
0.0
  9
$DIMAZIN
 70
     0
  9
$DIMDSEP
 70
    46
  9
$DIMATFIT
 70
     3
  9
$DIMFRAC
 70
     0
  9
$DIMLDRBLK
  1

  9
$DIMLUNIT
 70
     2
  9
$DIMLWD
 70
    -2
  9
$DIMLWE
 70
    -2
  9
$DIMTMOVE
 70
     0
  9
$DIMFXL
 40
1.0
  9
$DIMFXLON
 70
     0
  9
$DIMJOGANG
 40
0.7853981633974483
  9
$DIMTFILL
 70
     0
  9
$DIMTFILLCLR
 70
     0
  9
$DIMARCSYM
 70
     0
  9
$DIMLTYPE
  6

  9
$DIMLTEX1
  6

  9
$DIMLTEX2
  6

  9
$LUNITS
 70
     2
  9
$LUPREC
 70
     0
  9
$SKETCHINC
 40
1.0
  9
$FILLETRAD
 40
1.0
  9
$AUNITS
 70
     0
  9
$AUPREC
 70
     2
  9
$MENU
  1
.
  9
$ELEVATION
 40
0.0
  9
$PELEVATION
 40
0.0
  9
$THICKNESS
 40
0.0
  9
$LIMCHECK
 70
     0
  9
$CHAMFERA
 40
0.5
  9
$CHAMFERB
 40
0.5
  9
$CHAMFERC
 40
1.0
  9
$CHAMFERD
 40
0.0
  9
$SKPOLY
 70
     0
  9
$TDCREATE
 40
2456957.451200937
  9
$TDUCREATE
 40
2456957.076200937
  9
$TDUPDATE
 40
2456957.451200949
  9
$TDUUPDATE
 40
2456957.076200949
  9
$TDINDWG
 40
0.0
  9
$TDUSRTIMER
 40
0.0
  9
$USRTIMER
 70
     1
  9
$ANGBASE
 50
0.0
  9
$ANGDIR
 70
     0
  9
$PDMODE
 70
     0
  9
$PDSIZE
 40
0.0
  9
$PLINEWID
 40
0.0
  9
$SPLFRAME
 70
     0
  9
$SPLINETYPE
 70
     6
  9
$SPLINESEGS
 70
    20
  9
$HANDSEED
  5
2DB
  9
$SURFTAB1
 70
     6
  9
$SURFTAB2
 70
     6
  9
$SURFTYPE
 70
     6
  9
$SURFU
 70
     6
  9
$SURFV
 70
     6
  9
$UCSBASE
  2

  9
$UCSNAME
  2

  9
$UCSORG
 10
0.0
 20
0.0
 30
0.0
  9
$UCSXDIR
 10
1.0
 20
0.0
 30
0.0
  9
$UCSYDIR
 10
0.0
 20
1.0
 30
0.0
  9
$UCSORTHOREF
  2

  9
$UCSORTHOVIEW
 70
     0
  9
$UCSORGTOP
 10
0.0
 20
0.0
 30
0.0
  9
$UCSORGBOTTOM
 10
0.0
 20
0.0
 30
0.0
  9
$UCSORGLEFT
 10
0.0
 20
0.0
 30
0.0
  9
$UCSORGRIGHT
 10
0.0
 20
0.0
 30
0.0
  9
$UCSORGFRONT
 10
0.0
 20
0.0
 30
0.0
  9
$UCSORGBACK
 10
0.0
 20
0.0
 30
0.0
  9
$PUCSBASE
  2

  9
$PUCSNAME
  2

  9
$PUCSORG
 10
0.0
 20
0.0
 30
0.0
  9
$PUCSXDIR
 10
1.0
 20
0.0
 30
0.0
  9
$PUCSYDIR
 10
0.0
 20
1.0
 30
0.0
  9
$PUCSORTHOREF
  2

  9
$PUCSORTHOVIEW
 70
     0
  9
$PUCSORGTOP
 10
0.0
 20
0.0
 30
0.0
  9
$PUCSORGBOTTOM
 10
0.0
 20
0.0
 30
0.0
  9
$PUCSORGLEFT
 10
0.0
 20
0.0
 30
0.0
  9
$PUCSORGRIGHT
 10
0.0
 20
0.0
 30
0.0
  9
$PUCSORGFRONT
 10
0.0
 20
0.0
 30
0.0
  9
$PUCSORGBACK
 10
0.0
 20
0.0
 30
0.0
  9
$USERI1
 70
     0
  9
$USERI2
 70
     0
  9
$USERI3
 70
     0
  9
$USERI4
 70
     0
  9
$USERI5
 70
     0
  9
$USERR1
 40
0.0
  9
$USERR2
 40
0.0
  9
$USERR3
 40
0.0
  9
$USERR4
 40
0.0
  9
$USERR5
 40
0.0
  9
$WORLDVIEW
 70
     1
  9
$SHADEDGE
 70
     3
  9
$SHADEDIF
 70
    70
  9
$TILEMODE
 70
     1
  9
$MAXACTVP
 70
    64
  9
$PINSBASE
 10
0.0
 20
0.0
 30
0.0
  9
$PLIMCHECK
 70
     0
  9
$PEXTMIN
 10
0.0
 20
0.0
 30
0.0
  9
$PEXTMAX
 10
420.0000939145
 20
297.0000664109
 30
0.0
  9
$PLIMMIN
 10
0.0
 20
0.0
  9
$PLIMMAX
 10
420.0000939145
 20
297.0000664109
  9
$UNITMODE
 70
     0
  9
$VISRETAIN
 70
     1
  9
$PLINEGEN
 70
     0
  9
$PSLTSCALE
 70
     1
  9
$TREEDEPTH
 70
  3020
  9
$CMLSTYLE
  2
Standard
  9
$CMLJUST
 70
     0
  9
$CMLSCALE
 40
1.0
  9
$PROXYGRAPHICS
 70
     1
  9
$MEASUREMENT
 70
     1
  9
$CELWEIGHT
370
    -1
  9
$ENDCAPS
280
     0
  9
$JOINSTYLE
280
     0
  9
$LWDISPLAY
290
     0
  9
$INSUNITS
 70
     1
  9
$HYPERLINKBASE
  1

  9
$STYLESHEET
  1

  9
$XEDIT
290
     1
  9
$CEPSNTYPE
380
     0
  9
$PSTYLEMODE
290
     1
  9
$FINGERPRINTGUID
  2
{8F52E55B-E3F8-4574-B7C6-77F8EEA87638}
  9
$VERSIONGUID
  2
{FAEB1C32-E019-11D5-929B-00C0DF256EC4}
  9
$EXTNAMES
290
     1
  9
$PSVPSCALE
 40
0.0
  9
$OLESTARTUP
290
     0
  9
$SORTENTS
280
   127
  9
$INDEXCTL
280
     0
  9
$HIDETEXT
280
     1
  9
$XCLIPFRAME
290
     0
  9
$HALOGAP
280
     0
  9
$OBSCOLOR
 70
   257
  9
$OBSLTYPE
280
     0
  9
$INTERSECTIONDISPLAY
280
     0
  9
$INTERSECTIONCOLOR
 70
   257
  9
$DIMASSOC
280
     2
  9
$PROJECTNAME
  1

  9
$CAMERADISPLAY
290
     0
  9
$LENSLENGTH
 40
50.0
  9
$CAMERAHEIGHT
 40
0.0
  9
$STEPSPERSEC
 40
2.0
  9
$STEPSIZE
 40
6.0
  9
$3DDWFPREC
 40
2.0
  9
$PSOLWIDTH
 40
0.25
  9
$PSOLHEIGHT
 40
4.0
  9
$LOFTANG1
 40
1.570796326794897
  9
$LOFTANG2
 40
1.570796326794897
  9
$LOFTMAG1
 40
0.0
  9
$LOFTMAG2
 40
0.0
  9
$LOFTPARAM
 70
     7
  9
$LOFTNORMALS
280
     1
  9
$LATITUDE
 40
37.795
  9
$LONGITUDE
 40
-122.394
  9
$NORTHDIRECTION
 40
0.0
  9
$TIMEZONE
 70
 -8000
  9
$LIGHTGLYPHDISPLAY
280
     1
  9
$TILEMODELIGHTSYNCH
280
     1
  9
$SOLIDHIST
280
     1
  9
$SHOWHIST
280
     1
  9
$DWFFRAME
280
     2
  9
$DGNFRAME
280
     2
  9
$REALWORLDSCALE
290
     1
  9
$INTERFERECOLOR
 62
   256
  9
$CSHADOW
280
     0
  9
$SHADOWPLANELOCATION
 40
0.0
  0
ENDSEC
  0
SECTION
  2
CLASSES
  0
CLASS
  1
ACDBDICTIONARYWDFLT
  2
AcDbDictionaryWithDefault
  3
ObjectDBX Classes
 90
        0
 91
        4
280
     0
281
     0
  0
CLASS
  1
VISUALSTYLE
  2
AcDbVisualStyle
  3
ObjectDBX Classes
 90
     4095
 91
        4
280
     0
281
     0
  0
CLASS
  1
SCALE
  2
AcDbScale
  3
ObjectDBX Classes
 90
        0
 91
        4
280
     0
281
     0
  0
CLASS
  1
TCOPTIONALDATA
  2
TcOptionalData
  3
ExTcadCustObjs|Description: TurboCAD extension data object
 90
        0
 91
        3
280
     0
281
     0
  0
CLASS
  1
TABLESTYLE
  2
AcDbTableStyle
  3
ObjectDBX Classes
 90
     4095
 91
        3
280
     0
281
     0
  0
CLASS
  1
SORTENTSTABLE
  2
AcDbSortentsTable
  3
ObjectDBX Classes
 90
        0
 91
        3
280
     0
281
     0
  0
ENDSEC
  0
SECTION
  2
TABLES
  0
TABLE
  2
VPORT
  5
8
330
0
100
AcDbSymbolTable
 70
     1
  0
VPORT
  5
29
330
8
100
AcDbSymbolTableRecord
100
AcDbViewportTableRecord
  2
*Active
 70
     0
 10
0.0
 20
0.0
 11
1.0
 21
1.0
 12
0.0
 22
0.0
 13
0.0
 23
0.0
 14
504.0
 24
504.0
 15
504.0
 25
504.0
 16
0.0
 26
0.0
 36
1.0
 17
29874.95362330038
 27
16956.90659440475
 37
0.0
 40
26425.28906250001
 41
1.757855822550832
 42
50.0
 43
0.0
 44
0.0
 50
0.0
 51
0.0
 71
     0
 72
   100
 73
     1
 74
     3
 75
     0
 76
     0
 77
     0
 78
     0
281
     0
 65
     1
110
0.0
120
0.0
130
0.0
111
1.0
121
0.0
131
0.0
112
0.0
122
1.0
132
0.0
 79
     0
146
0.0
 60
     3
 61
     5
292
     1
282
     1
141
0.0
142
0.0
 63
   256
  0
ENDTAB
  0
TABLE
  2
LTYPE
  5
5
330
0
100
AcDbSymbolTable
 70
    14
  0
LTYPE
  5
14
330
5
100
AcDbSymbolTableRecord
100
AcDbLinetypeTableRecord
  2
ByBlock
 70
     0
  3

 72
    65
 73
     0
 40
0.0
  0
LTYPE
  5
15
330
5
100
AcDbSymbolTableRecord
100
AcDbLinetypeTableRecord
  2
ByLayer
 70
     0
  3

 72
    65
 73
     0
 40
0.0
  0
LTYPE
  5
16
330
5
100
AcDbSymbolTableRecord
100
AcDbLinetypeTableRecord
  2
Continuous
 70
     0
  3
Solid line
 72
    65
 73
     0
 40
0.0
  0
LTYPE
  5
5E
330
5
100
AcDbSymbolTableRecord
100
AcDbLinetypeTableRecord
  2
BORDER
 70
     0
  3
BORDER
 72
    65
 73
     6
 40
1.75
 49
0.5
 74
     0
 49
-0.25
 74
     0
 49
0.5
 74
     0
 49
-0.25
 74
     0
 49
0.0
 74
     0
 49
-0.25
 74
     0
  0
LTYPE
  5
5F
330
5
100
AcDbSymbolTableRecord
100
AcDbLinetypeTableRecord
  2
CENTER
 70
     0
  3
CENTER
 72
    65
 73
     4
 40
2.0
 49
1.25
 74
     0
 49
-0.25
 74
     0
 49
0.25
 74
     0
 49
-0.25
 74
     0
  0
LTYPE
  5
60
330
5
100
AcDbSymbolTableRecord
100
AcDbLinetypeTableRecord
  2
DASHDOT
 70
     0
  3
DASHDOT
 72
    65
 73
     4
 40
1.0
 49
0.5
 74
     0
 49
-0.25
 74
     0
 49
0.0
 74
     0
 49
-0.25
 74
     0
  0
LTYPE
  5
61
330
5
100
AcDbSymbolTableRecord
100
AcDbLinetypeTableRecord
  2
DASHED
 70
     0
  3
DASHED
 72
    65
 73
     2
 40
0.75
 49
0.5
 74
     0
 49
-0.25
 74
     0
  0
LTYPE
  5
62
330
5
100
AcDbSymbolTableRecord
100
AcDbLinetypeTableRecord
  2
DIVIDE
 70
     0
  3
DIVIDE
 72
    65
 73
     6
 40
1.25
 49
0.5
 74
     0
 49
-0.25
 74
     0
 49
0.0
 74
     0
 49
-0.25
 74
     0
 49
0.0
 74
     0
 49
-0.25
 74
     0
  0
LTYPE
  5
63
330
5
100
AcDbSymbolTableRecord
100
AcDbLinetypeTableRecord
  2
DOT
 70
     0
  3
DOT
 72
    65
 73
     2
 40
0.25
 49
0.0
 74
     0
 49
-0.25
 74
     0
  0
LTYPE
  5
64
330
5
100
AcDbSymbolTableRecord
100
AcDbLinetypeTableRecord
  2
HIDDEN
 70
     0
  3
HIDDEN
 72
    65
 73
     2
 40
0.375
 49
0.25
 74
     0
 49
-0.125
 74
     0
  0
LTYPE
  5
65
330
5
100
AcDbSymbolTableRecord
100
AcDbLinetypeTableRecord
  2
PHANTOM
 70
     0
  3
PHANTOM
 72
    65
 73
     6
 40
2.5
 49
1.25
 74
     0
 49
-0.25
 74
     0
 49
0.25
 74
     0
 49
-0.25
 74
     0
 49
0.25
 74
     0
 49
-0.25
 74
     0
  0
LTYPE
  5
66
330
5
100
AcDbSymbolTableRecord
100
AcDbLinetypeTableRecord
  2
$INVISIBLE
 70
     0
  3
$INVISIBLE
 72
    65
 73
     2
 40
200.0
 49
-100.0
 74
     0
 49
-100.0
 74
     0
  0
LTYPE
  5
67
330
5
100
AcDbSymbolTableRecord
100
AcDbLinetypeTableRecord
  2
$MARGINS
 70
     0
  3
$MARGINS
 72
    65
 73
     2
 40
0.0750000011175871
 49
0.0500000007450581
 74
     0
 49
-0.025000000372529
 74
     0
  0
LTYPE
  5
68
330
5
100
AcDbSymbolTableRecord
100
AcDbLinetypeTableRecord
  2
$AUXILIARY
 70
     0
  3
$AUXILIARY
 72
    65
 73
     2
 40
0.1000000014901161
 49
0.0500000007450581
 74
     0
 49
-0.0500000007450581
 74
     0
  0
LTYPE
  5
69
330
5
100
AcDbSymbolTableRecord
100
AcDbLinetypeTableRecord
  2
$CONSTRUCTION
 70
     0
  3
$CONSTRUCTION
 72
    65
 73
     4
 40
0.3000000044703484
 49
0.2000000029802322
 74
     0
 49
-0.0500000007450581
 74
     0
 49
0.0
 74
     0
 49
-0.0500000007450581
 74
     0
  0
LTYPE
  5
6A
330
5
100
AcDbSymbolTableRecord
100
AcDbLinetypeTableRecord
  2
$SNAPEXT
 70
     0
  3
$SNAPEXT
 72
    65
 73
     2
 40
0.04
 49
0.02
 74
     0
 49
-0.02
 74
     0
  0
ENDTAB
  0
TABLE
  2
LAYER
  5
2
330
0
100
AcDbSymbolTable
 70
    12
  0
LAYER
  5
10
330
2
100
AcDbSymbolTableRecord
100
AcDbLayerTableRecord
  2
0
 70
     0
 62
     7
  6
Continuous
370
     0
390
F
347
0
  0
LAYER
  5
6B
330
2
100
AcDbSymbolTableRecord
100
AcDbLayerTableRecord
  2
反射板
 70
     0
 62
    -7
  6
$MARGINS
370
     0
390
F
347
0
  0
LAYER
  5
6E
102
{ACAD_XDICTIONARY
360
6C
102
}
330
2
100
AcDbSymbolTableRecord
100
AcDbLayerTableRecord
  2
kutai
 70
     0
 62
     7
  6
Continuous
370
     0
390
F
347
0
  0
LAYER
  5
6F
330
2
100
AcDbSymbolTableRecord
100
AcDbLayerTableRecord
  2
FCsyoumei
 70
     0
 62
     7
  6
Continuous
370
     0
390
F
347
0
  0
LAYER
  5
70
330
2
100
AcDbSymbolTableRecord
100
AcDbLayerTableRecord
  2
FCマーク
 70
     0
 62
     7
  6
Continuous
370
     0
390
F
347
0
  0
LAYER
  5
71
330
2
100
AcDbSymbolTableRecord
100
AcDbLayerTableRecord
  2
中央
 70
     0
 62
    -1
420
 16711680
  6
Continuous
370
     0
390
F
347
0
  0
LAYER
  5
72
330
2
100
AcDbSymbolTableRecord
100
AcDbLayerTableRecord
  2
バトン寸法
 70
     0
 62
     7
  6
Continuous
370
     0
390
F
347
0
  0
LAYER
  5
73
330
2
100
AcDbSymbolTableRecord
100
AcDbLayerTableRecord
  2
バトン名称
 70
     0
 62
     7
  6
Continuous
370
     0
390
F
347
0
  0
LAYER
  5
74
330
2
100
AcDbSymbolTableRecord
100
AcDbLayerTableRecord
  2
コンセント
 70
     0
 62
     7
  6
Continuous
370
     0
390
F
347
0
  0
LAYER
  5
75
330
2
100
AcDbSymbolTableRecord
100
AcDbLayerTableRecord
  2
舞台
 70
     0
 62
     7
  6
Continuous
370
     0
390
F
347
0
  0
LAYER
  5
78
102
{ACAD_XDICTIONARY
360
76
102
}
330
2
100
AcDbSymbolTableRecord
100
AcDbLayerTableRecord
  2
kutai3
 70
     0
 62
   251
420
  5526612
  6
Continuous
370
     0
390
F
347
0
  0
LAYER
  5
F1
330
2
100
AcDbSymbolTableRecord
100
AcDbLayerTableRecord
  2
Defpoints
 70
     0
 62
     7
  6
Continuous
290
     0
370
    -3
390
F
347
0
  0
ENDTAB
  0
TABLE
  2
STYLE
  5
3
330
0
100
AcDbSymbolTable
 70
     2
  0
STYLE
  5
11
330
3
100
AcDbSymbolTableRecord
100
AcDbTextStyleTableRecord
  2
Standard
 70
     0
 40
0.0
 41
1.0
 50
0.0
 71
     0
 42
0.2
  3
txt
  4

  0
STYLE
  5
82
330
3
100
AcDbSymbolTableRecord
100
AcDbTextStyleTableRecord
  2
_TCW_TXTSTY_1
 70
     0
 40
0.0
 41
1.0
 50
0.0
 71
     0
 42
0.78125
  3

  4

1001
ACAD
1000
ＭＳ ゴシック
1071
    32802
  0
ENDTAB
  0
TABLE
  2
VIEW
  5
6
330
0
100
AcDbSymbolTable
 70
     4
  0
VIEW
  5
79
330
6
100
AcDbSymbolTableRecord
100
AcDbViewTableRecord
  2
表示_0
 70
     0
 40
29700.00512695312
 10
28887.3701171875
 20
18549.93884277344
 41
42000.009765625
 11
0.0
 21
0.0
 31
1.0
 12
0.0
 22
0.0
 32
0.0
 42
50.0
 43
0.0
 44
0.0
 50
0.0
 71
     0
281
     0
 72
     0
 73
     0
  0
VIEW
  5
7A
330
6
100
AcDbSymbolTableRecord
100
AcDbViewTableRecord
  2
View_0
 70
     0
 40
11.69291305541992
 10
4.133858203887939
 20
5.846456527709961
 41
8.267716407775879
 11
0.0
 21
0.0
 31
1.0
 12
0.0
 22
0.0
 32
0.0
 42
50.0
 43
0.0
 44
0.0
 50
0.0
 71
     0
281
     0
 72
     0
 73
     0
  0
VIEW
  5
7B
330
6
100
AcDbSymbolTableRecord
100
AcDbViewTableRecord
  2
Margin width bottom
 70
     0
 40
151.0047770738602
 10
141.4500002264977
 20
74.49352210760117
 41
284.9100581407547
 11
0.0
 21
0.0
 31
1.0
 12
0.0
 22
0.0
 32
0.0
 42
50.0
 43
0.0
 44
0.0
 50
0.0
 71
     0
281
     0
 72
     0
 73
     0
  0
VIEW
  5
7C
330
6
100
AcDbSymbolTableRecord
100
AcDbViewTableRecord
  2
Margin width top
 70
     0
 40
153.0036659240723
 10
141.4500190019608
 20
120.5107555389404
 41
284.9100816249847
 11
0.0
 21
0.0
 31
1.0
 12
0.0
 22
0.0
 32
0.0
 42
50.0
 43
0.0
 44
0.0
 50
0.0
 71
     0
281
     0
 72
     0
 73
     0
  0
ENDTAB
  0
TABLE
  2
UCS
  5
7
330
0
100
AcDbSymbolTable
 70
     0
  0
ENDTAB
  0
TABLE
  2
APPID
  5
9
330
0
100
AcDbSymbolTable
 70
     2
  0
APPID
  5
12
330
9
100
AcDbSymbolTableRecord
100
AcDbRegAppTableRecord
  2
ACAD
 70
     0
  0
APPID
  5
5D
330
9
100
AcDbSymbolTableRecord
100
AcDbRegAppTableRecord
  2
TCAD
 70
     0
  0
ENDTAB
  0
TABLE
  2
DIMSTYLE
  5
A
330
0
100
AcDbSymbolTable
 70
     2
100
AcDbDimStyleTable
  0
DIMSTYLE
105
27
330
A
100
AcDbSymbolTableRecord
100
AcDbDimStyleTableRecord
  2
Standard
 70
     0
340
11
  0
DIMSTYLE
105
7D
102
{ACAD_REACTORS
330
F0
330
FC
330
107
330
112
330
11D
330
128
330
133
330
13E
330
149
330
154
330
15F
330
16B
330
176
330
181
330
18C
330
197
330
1A2
330
1C0
330
1CB
330
2B6
102
}
330
A
100
AcDbSymbolTableRecord
100
AcDbDimStyleTableRecord
  2
標準寸法
 70
     0
 41
200.0
 42
200.0
 43
300.0
 44
200.0
 45
1.0
 75
     1
 76
     1
 78
    11
140
156.25
143
1.0
147
400.0
148
1.0
171
     0
174
     1
175
     1
176
   256
177
   256
178
   256
179
     2
271
     0
274
     0
276
     2
340
82
342
7E
  0
ENDTAB
  0
TABLE
  2
BLOCK_RECORD
  5
1
330
0
100
AcDbSymbolTable
 70
    22
  0
BLOCK_RECORD
  5
1F
102
{ACAD_XDICTIONARY
360
2D4
102
}
330
1
100
AcDbSymbolTableRecord
100
AcDbBlockTableRecord
  2
*Model_Space
340
22
 70
     0
280
     1
281
     0
  0
BLOCK_RECORD
  5
1B
102
{ACAD_XDICTIONARY
360
2D8
102
}
330
1
100
AcDbSymbolTableRecord
100
AcDbBlockTableRecord
  2
*Paper_Space
340
1E
 70
     0
280
     1
281
     0
  0
BLOCK_RECORD
  5
7E
330
1
100
AcDbSymbolTableRecord
100
AcDbBlockTableRecord
  2
TC_DIMARROW_FILLED30
340
0
 70
     0
280
     1
281
     0
  0
BLOCK_RECORD
  5
F2
330
1
100
AcDbSymbolTableRecord
100
AcDbBlockTableRecord
  2
*D2
340
0
 70
     0
280
     1
281
     0
  0
BLOCK_RECORD
  5
FD
330
1
100
AcDbSymbolTableRecord
100
AcDbBlockTableRecord
  2
*D3
340
0
 70
     0
280
     1
281
     0
  0
BLOCK_RECORD
  5
108
330
1
100
AcDbSymbolTableRecord
100
AcDbBlockTableRecord
  2
*D4
340
0
 70
     0
280
     1
281
     0
  0
BLOCK_RECORD
  5
113
330
1
100
AcDbSymbolTableRecord
100
AcDbBlockTableRecord
  2
*D5
340
0
 70
     0
280
     1
281
     0
  0
BLOCK_RECORD
  5
11E
330
1
100
AcDbSymbolTableRecord
100
AcDbBlockTableRecord
  2
*D6
340
0
 70
     0
280
     1
281
     0
  0
BLOCK_RECORD
  5
129
330
1
100
AcDbSymbolTableRecord
100
AcDbBlockTableRecord
  2
*D7
340
0
 70
     0
280
     1
281
     0
  0
BLOCK_RECORD
  5
134
330
1
100
AcDbSymbolTableRecord
100
AcDbBlockTableRecord
  2
*D8
340
0
 70
     0
280
     1
281
     0
  0
BLOCK_RECORD
  5
13F
330
1
100
AcDbSymbolTableRecord
100
AcDbBlockTableRecord
  2
*D9
340
0
 70
     0
280
     1
281
     0
  0
BLOCK_RECORD
  5
14A
330
1
100
AcDbSymbolTableRecord
100
AcDbBlockTableRecord
  2
*D10
340
0
 70
     0
280
     1
281
     0
  0
BLOCK_RECORD
  5
155
330
1
100
AcDbSymbolTableRecord
100
AcDbBlockTableRecord
  2
*D11
340
0
 70
     0
280
     1
281
     0
  0
BLOCK_RECORD
  5
160
330
1
100
AcDbSymbolTableRecord
100
AcDbBlockTableRecord
  2
*D12
340
0
 70
     0
280
     1
281
     0
  0
BLOCK_RECORD
  5
16C
330
1
100
AcDbSymbolTableRecord
100
AcDbBlockTableRecord
  2
*D13
340
0
 70
     0
280
     1
281
     0
  0
BLOCK_RECORD
  5
177
330
1
100
AcDbSymbolTableRecord
100
AcDbBlockTableRecord
  2
*D14
340
0
 70
     0
280
     1
281
     0
  0
BLOCK_RECORD
  5
182
330
1
100
AcDbSymbolTableRecord
100
AcDbBlockTableRecord
  2
*D15
340
0
 70
     0
280
     1
281
     0
  0
BLOCK_RECORD
  5
18D
330
1
100
AcDbSymbolTableRecord
100
AcDbBlockTableRecord
  2
*D16
340
0
 70
     0
280
     1
281
     0
  0
BLOCK_RECORD
  5
198
330
1
100
AcDbSymbolTableRecord
100
AcDbBlockTableRecord
  2
*D17
340
0
 70
     0
280
     1
281
     0
  0
BLOCK_RECORD
  5
1A3
330
1
100
AcDbSymbolTableRecord
100
AcDbBlockTableRecord
  2
*D18
340
0
 70
     0
280
     1
281
     0
  0
BLOCK_RECORD
  5
1C1
330
1
100
AcDbSymbolTableRecord
100
AcDbBlockTableRecord
  2
*D19
340
0
 70
     0
280
     1
281
     0
  0
BLOCK_RECORD
  5
1CC
330
1
100
AcDbSymbolTableRecord
100
AcDbBlockTableRecord
  2
*D20
340
0
 70
     0
280
     1
281
     0
  0
BLOCK_RECORD
  5
2B7
330
1
100
AcDbSymbolTableRecord
100
AcDbBlockTableRecord
  2
*D21
340
0
 70
     0
280
     1
281
     0
  0
ENDTAB
  0
ENDSEC
  0
SECTION
  2
BLOCKS
  0
BLOCK
  5
20
330
1F
100
AcDbEntity
  8
0
100
AcDbBlockBegin
  2
*Model_Space
 70
     0
 10
0.0
 20
0.0
 30
0.0
  3
*Model_Space
  1

  0
ENDBLK
  5
21
330
1F
100
AcDbEntity
  8
0
100
AcDbBlockEnd
  0
BLOCK
  5
1C
330
1B
100
AcDbEntity
 67
     1
  8
0
100
AcDbBlockBegin
  2
*Paper_Space
 70
     0
 10
0.0
 20
0.0
 30
0.0
  3
*Paper_Space
  1

  0
ENDBLK
  5
1D
330
1B
100
AcDbEntity
 67
     1
  8
0
100
AcDbBlockEnd
  0
BLOCK
  5
80
330
7E
100
AcDbEntity
  8
0
100
AcDbBlockBegin
  2
TC_DIMARROW_FILLED30
 70
     0
 10
0.0
 20
0.0
 30
0.0
  3
TC_DIMARROW_FILLED30
  1

  0
SOLID
  5
7F
330
7E
100
AcDbEntity
  8
0
  6
ByBlock
 62
     0
100
AcDbTrace
 10
0.0
 20
0.0
 30
0.0
 11
-1.0
 21
0.267949
 31
0.0
 12
-1.0
 22
-0.267949
 32
0.0
 13
-1.0
 23
-0.267949
 33
0.0
  0
ENDBLK
  5
81
330
7E
100
AcDbEntity
  8
0
100
AcDbBlockEnd
  0
BLOCK
  5
FA
330
F2
100
AcDbEntity
  8
0
100
AcDbBlockBegin
  2
*D2
 70
     1
 10
0.0
 20
0.0
 30
0.0
  3
*D2
  1

  0
LINE
  5
F3
330
F2
100
AcDbEntity
  8
舞台
  6
Continuous
370
    -2
100
AcDbLine
 10
44553.17905640996
 20
14810.56247340105
 30
0.0
 11
44553.17905640998
 21
15085.56247340105
 31
0.0
  0
LINE
  5
F4
330
F2
100
AcDbEntity
  8
舞台
  6
Continuous
370
    -2
100
AcDbLine
 10
44553.17905640996
 20
14610.56247340105
 30
0.0
 11
44553.17905640995
 21
14410.56247340105
 31
0.0
  0
LINE
  5
F5
330
F2
100
AcDbEntity
  8
舞台
  6
Continuous
370
    -2
100
AcDbLine
 10
44553.17905640999
 20
15285.56247340105
 30
0.0
 11
44553.17905640999
 21
15485.56247340105
 31
0.0
  0
MTEXT
  5
F6
330
F2
100
AcDbEntity
  8
舞台
100
AcDbMText
 10
44553.17905640997
 20
14948.06247340105
 30
0.0
 40
156.25
 41
0.0
 46
0.0
 71
     5
 72
     1
  1
\A1;275
  7
_TCW_TXTSTY_1
 73
     1
 44
1.0
  0
POINT
  5
F7
330
F2
100
AcDbEntity
  8
Defpoints
 62
     0
100
AcDbPoint
 10
45053.17905640996
 20
14810.56247340102
 30
0.0
  0
POINT
  5
F8
330
F2
100
AcDbEntity
  8
Defpoints
 62
     0
100
AcDbPoint
 10
45053.17905640998
 20
15085.56247340102
 30
0.0
  0
POINT
  5
F9
330
F2
100
AcDbEntity
  8
Defpoints
 62
     0
100
AcDbPoint
 10
44553.17905640998
 20
15085.56247340105
 30
0.0
  0
ENDBLK
  5
FB
330
F2
100
AcDbEntity
  8
0
100
AcDbBlockEnd
  0
BLOCK
  5
105
330
FD
100
AcDbEntity
  8
0
100
AcDbBlockBegin
  2
*D3
 70
     1
 10
0.0
 20
0.0
 30
0.0
  3
*D3
  1

  0
LINE
  5
FE
330
FD
100
AcDbEntity
  8
舞台
  6
Continuous
370
    -2
100
AcDbLine
 10
44553.17905640997
 20
15085.56247340103
 30
0.0
 11
44553.17905640998
 21
15535.56247340103
 31
0.0
  0
LINE
  5
FF
330
FD
100
AcDbEntity
  8
舞台
  6
Continuous
370
    -2
100
AcDbLine
 10
44553.17905640997
 20
14885.56247340103
 30
0.0
 11
44553.17905640997
 21
14685.56247340103
 31
0.0
  0
LINE
  5
100
330
FD
100
AcDbEntity
  8
舞台
  6
Continuous
370
    -2
100
AcDbLine
 10
44553.17905640998
 20
15735.56247340103
 30
0.0
 11
44553.17905640998
 21
15935.56247340103
 31
0.0
  0
MTEXT
  5
101
330
FD
100
AcDbEntity
  8
舞台
100
AcDbMText
 10
44553.17905640998
 20
15310.56247340103
 30
0.0
 40
156.25
 41
0.0
 46
0.0
 71
     5
 72
     1
  1
\A1;450
  7
_TCW_TXTSTY_1
 73
     1
 44
1.0
  0
POINT
  5
102
330
FD
100
AcDbEntity
  8
Defpoints
 62
     0
100
AcDbPoint
 10
45053.17905640997
 20
15085.56247340102
 30
0.0
  0
POINT
  5
103
330
FD
100
AcDbEntity
  8
Defpoints
 62
     0
100
AcDbPoint
 10
45053.17905640998
 20
15535.56247340102
 30
0.0
  0
POINT
  5
104
330
FD
100
AcDbEntity
  8
Defpoints
 62
     0
100
AcDbPoint
 10
44553.17905640998
 20
15535.56247340103
 30
0.0
  0
ENDBLK
  5
106
330
FD
100
AcDbEntity
  8
0
100
AcDbBlockEnd
  0
BLOCK
  5
110
330
108
100
AcDbEntity
  8
0
100
AcDbBlockBegin
  2
*D4
 70
     1
 10
0.0
 20
0.0
 30
0.0
  3
*D4
  1

  0
LINE
  5
109
330
108
100
AcDbEntity
  8
舞台
  6
Continuous
370
    -2
100
AcDbLine
 10
44553.17905640997
 20
15535.56247340103
 30
0.0
 11
44553.17905640998
 21
16060.56247340103
 31
0.0
  0
LINE
  5
10A
330
108
100
AcDbEntity
  8
舞台
  6
Continuous
370
    -2
100
AcDbLine
 10
44553.17905640997
 20
15335.56247340103
 30
0.0
 11
44553.17905640997
 21
15135.56247340103
 31
0.0
  0
LINE
  5
10B
330
108
100
AcDbEntity
  8
舞台
  6
Continuous
370
    -2
100
AcDbLine
 10
44553.17905640998
 20
16260.56247340103
 30
0.0
 11
44553.17905640998
 21
16460.56247340103
 31
0.0
  0
MTEXT
  5
10C
330
108
100
AcDbEntity
  8
舞台
100
AcDbMText
 10
44553.17905640998
 20
15798.06247340103
 30
0.0
 40
156.25
 41
0.0
 46
0.0
 71
     5
 72
     1
  1
\A1;525
  7
_TCW_TXTSTY_1
 73
     1
 44
1.0
  0
POINT
  5
10D
330
108
100
AcDbEntity
  8
Defpoints
 62
     0
100
AcDbPoint
 10
45053.17905640997
 20
15535.56247340102
 30
0.0
  0
POINT
  5
10E
330
108
100
AcDbEntity
  8
Defpoints
 62
     0
100
AcDbPoint
 10
45053.17905640998
 20
16060.56247340102
 30
0.0
  0
POINT
  5
10F
330
108
100
AcDbEntity
  8
Defpoints
 62
     0
100
AcDbPoint
 10
44553.17905640998
 20
16060.56247340103
 30
0.0
  0
ENDBLK
  5
111
330
108
100
AcDbEntity
  8
0
100
AcDbBlockEnd
  0
BLOCK
  5
11B
330
113
100
AcDbEntity
  8
0
100
AcDbBlockBegin
  2
*D5
 70
     1
 10
0.0
 20
0.0
 30
0.0
  3
*D5
  1

  0
LINE
  5
114
330
113
100
AcDbEntity
  8
舞台
  6
Continuous
370
    -2
100
AcDbLine
 10
44553.17905640998
 20
16060.56247340102
 30
0.0
 11
44553.17905640998
 21
16610.56247340102
 31
0.0
  0
LINE
  5
115
330
113
100
AcDbEntity
  8
舞台
  6
Continuous
370
    -2
100
AcDbLine
 10
44553.17905640998
 20
15860.56247340102
 30
0.0
 11
44553.17905640998
 21
15660.56247340102
 31
0.0
  0
LINE
  5
116
330
113
100
AcDbEntity
  8
舞台
  6
Continuous
370
    -2
100
AcDbLine
 10
44553.17905640998
 20
16810.56247340102
 30
0.0
 11
44553.17905640998
 21
17010.56247340102
 31
0.0
  0
MTEXT
  5
117
330
113
100
AcDbEntity
  8
舞台
100
AcDbMText
 10
44553.17905640998
 20
16335.56247340102
 30
0.0
 40
156.25
 41
0.0
 46
0.0
 71
     5
 72
     1
  1
\A1;550
  7
_TCW_TXTSTY_1
 73
     1
 44
1.0
  0
POINT
  5
118
330
113
100
AcDbEntity
  8
Defpoints
 62
     0
100
AcDbPoint
 10
45053.17905640998
 20
16060.56247340102
 30
0.0
  0
POINT
  5
119
330
113
100
AcDbEntity
  8
Defpoints
 62
     0
100
AcDbPoint
 10
45053.17905640998
 20
16610.56247340102
 30
0.0
  0
POINT
  5
11A
330
113
100
AcDbEntity
  8
Defpoints
 62
     0
100
AcDbPoint
 10
44553.17905640998
 20
16610.56247340102
 30
0.0
  0
ENDBLK
  5
11C
330
113
100
AcDbEntity
  8
0
100
AcDbBlockEnd
  0
BLOCK
  5
126
330
11E
100
AcDbEntity
  8
0
100
AcDbBlockBegin
  2
*D6
 70
     1
 10
0.0
 20
0.0
 30
0.0
  3
*D6
  1

  0
LINE
  5
11F
330
11E
100
AcDbEntity
  8
舞台
  6
Continuous
370
    -2
100
AcDbLine
 10
44553.17905640998
 20
16610.56247340102
 30
0.0
 11
44553.17905640998
 21
16910.56247340102
 31
0.0
  0
LINE
  5
120
330
11E
100
AcDbEntity
  8
舞台
  6
Continuous
370
    -2
100
AcDbLine
 10
44553.17905640998
 20
16410.56247340102
 30
0.0
 11
44553.17905640998
 21
16210.56247340102
 31
0.0
  0
LINE
  5
121
330
11E
100
AcDbEntity
  8
舞台
  6
Continuous
370
    -2
100
AcDbLine
 10
44553.17905640998
 20
17110.56247340102
 30
0.0
 11
44553.17905640998
 21
17310.56247340102
 31
0.0
  0
MTEXT
  5
122
330
11E
100
AcDbEntity
  8
舞台
100
AcDbMText
 10
44553.17905640998
 20
16760.56247340102
 30
0.0
 40
156.25
 41
0.0
 46
0.0
 71
     5
 72
     1
  1
\A1;300
  7
_TCW_TXTSTY_1
 73
     1
 44
1.0
  0
POINT
  5
123
330
11E
100
AcDbEntity
  8
Defpoints
 62
     0
100
AcDbPoint
 10
45053.17905640998
 20
16610.56247340102
 30
0.0
  0
POINT
  5
124
330
11E
100
AcDbEntity
  8
Defpoints
 62
     0
100
AcDbPoint
 10
45053.17905640998
 20
16910.56247340102
 30
0.0
  0
POINT
  5
125
330
11E
100
AcDbEntity
  8
Defpoints
 62
     0
100
AcDbPoint
 10
44553.17905640998
 20
16910.56247340102
 30
0.0
  0
ENDBLK
  5
127
330
11E
100
AcDbEntity
  8
0
100
AcDbBlockEnd
  0
BLOCK
  5
131
330
129
100
AcDbEntity
  8
0
100
AcDbBlockBegin
  2
*D7
 70
     1
 10
0.0
 20
0.0
 30
0.0
  3
*D7
  1

  0
LINE
  5
12A
330
129
100
AcDbEntity
  8
舞台
  6
Continuous
370
    -2
100
AcDbLine
 10
44553.17905640998
 20
16910.56247340102
 30
0.0
 11
44553.17905640998
 21
17360.56247340102
 31
0.0
  0
LINE
  5
12B
330
129
100
AcDbEntity
  8
舞台
  6
Continuous
370
    -2
100
AcDbLine
 10
44553.17905640998
 20
16710.56247340102
 30
0.0
 11
44553.17905640998
 21
16510.56247340102
 31
0.0
  0
LINE
  5
12C
330
129
100
AcDbEntity
  8
舞台
  6
Continuous
370
    -2
100
AcDbLine
 10
44553.17905640998
 20
17560.56247340102
 30
0.0
 11
44553.17905640998
 21
17760.56247340102
 31
0.0
  0
MTEXT
  5
12D
330
129
100
AcDbEntity
  8
舞台
100
AcDbMText
 10
44553.17905640998
 20
17135.56247340102
 30
0.0
 40
156.25
 41
0.0
 46
0.0
 71
     5
 72
     1
  1
\A1;450
  7
_TCW_TXTSTY_1
 73
     1
 44
1.0
  0
POINT
  5
12E
330
129
100
AcDbEntity
  8
Defpoints
 62
     0
100
AcDbPoint
 10
45053.17905640998
 20
16910.56247340102
 30
0.0
  0
POINT
  5
12F
330
129
100
AcDbEntity
  8
Defpoints
 62
     0
100
AcDbPoint
 10
45053.17905640998
 20
17360.56247340102
 30
0.0
  0
POINT
  5
130
330
129
100
AcDbEntity
  8
Defpoints
 62
     0
100
AcDbPoint
 10
44553.17905640998
 20
17360.56247340102
 30
0.0
  0
ENDBLK
  5
132
330
129
100
AcDbEntity
  8
0
100
AcDbBlockEnd
  0
BLOCK
  5
13C
330
134
100
AcDbEntity
  8
0
100
AcDbBlockBegin
  2
*D8
 70
     1
 10
0.0
 20
0.0
 30
0.0
  3
*D8
  1

  0
LINE
  5
135
330
134
100
AcDbEntity
  8
舞台
  6
Continuous
370
    -2
100
AcDbLine
 10
44553.17905640998
 20
17360.56247340102
 30
0.0
 11
44553.17905640998
 21
17860.56247340102
 31
0.0
  0
LINE
  5
136
330
134
100
AcDbEntity
  8
舞台
  6
Continuous
370
    -2
100
AcDbLine
 10
44553.17905640998
 20
17160.56247340102
 30
0.0
 11
44553.17905640998
 21
16960.56247340102
 31
0.0
  0
LINE
  5
137
330
134
100
AcDbEntity
  8
舞台
  6
Continuous
370
    -2
100
AcDbLine
 10
44553.17905640998
 20
18060.56247340102
 30
0.0
 11
44553.17905640998
 21
18260.56247340102
 31
0.0
  0
MTEXT
  5
138
330
134
100
AcDbEntity
  8
舞台
100
AcDbMText
 10
44553.17905640998
 20
17610.56247340102
 30
0.0
 40
156.25
 41
0.0
 46
0.0
 71
     5
 72
     1
  1
\A1;500
  7
_TCW_TXTSTY_1
 73
     1
 44
1.0
  0
POINT
  5
139
330
134
100
AcDbEntity
  8
Defpoints
 62
     0
100
AcDbPoint
 10
45053.17905640998
 20
17360.56247340102
 30
0.0
  0
POINT
  5
13A
330
134
100
AcDbEntity
  8
Defpoints
 62
     0
100
AcDbPoint
 10
45053.17905640998
 20
17860.56247340102
 30
0.0
  0
POINT
  5
13B
330
134
100
AcDbEntity
  8
Defpoints
 62
     0
100
AcDbPoint
 10
44553.17905640998
 20
17860.56247340102
 30
0.0
  0
ENDBLK
  5
13D
330
134
100
AcDbEntity
  8
0
100
AcDbBlockEnd
  0
BLOCK
  5
147
330
13F
100
AcDbEntity
  8
0
100
AcDbBlockBegin
  2
*D9
 70
     1
 10
0.0
 20
0.0
 30
0.0
  3
*D9
  1

  0
LINE
  5
140
330
13F
100
AcDbEntity
  8
舞台
  6
Continuous
370
    -2
100
AcDbLine
 10
44553.17905640998
 20
17860.56247340102
 30
0.0
 11
44553.17905640998
 21
18410.56247340102
 31
0.0
  0
LINE
  5
141
330
13F
100
AcDbEntity
  8
舞台
  6
Continuous
370
    -2
100
AcDbLine
 10
44553.17905640998
 20
17660.56247340102
 30
0.0
 11
44553.17905640998
 21
17460.56247340102
 31
0.0
  0
LINE
  5
142
330
13F
100
AcDbEntity
  8
舞台
  6
Continuous
370
    -2
100
AcDbLine
 10
44553.17905640998
 20
18610.56247340102
 30
0.0
 11
44553.17905640998
 21
18810.56247340102
 31
0.0
  0
MTEXT
  5
143
330
13F
100
AcDbEntity
  8
舞台
100
AcDbMText
 10
44553.17905640998
 20
18135.56247340102
 30
0.0
 40
156.25
 41
0.0
 46
0.0
 71
     5
 72
     1
  1
\A1;550
  7
_TCW_TXTSTY_1
 73
     1
 44
1.0
  0
POINT
  5
144
330
13F
100
AcDbEntity
  8
Defpoints
 62
     0
100
AcDbPoint
 10
45053.17905640998
 20
17860.56247340102
 30
0.0
  0
POINT
  5
145
330
13F
100
AcDbEntity
  8
Defpoints
 62
     0
100
AcDbPoint
 10
45053.17905640998
 20
18410.56247340102
 30
0.0
  0
POINT
  5
146
330
13F
100
AcDbEntity
  8
Defpoints
 62
     0
100
AcDbPoint
 10
44553.17905640998
 20
18410.56247340102
 30
0.0
  0
ENDBLK
  5
148
330
13F
100
AcDbEntity
  8
0
100
AcDbBlockEnd
  0
BLOCK
  5
152
330
14A
100
AcDbEntity
  8
0
100
AcDbBlockBegin
  2
*D10
 70
     1
 10
0.0
 20
0.0
 30
0.0
  3
*D10
  1

  0
LINE
  5
14B
330
14A
100
AcDbEntity
  8
舞台
  6
Continuous
370
    -2
100
AcDbLine
 10
44553.17905640998
 20
18410.56247340102
 30
0.0
 11
44553.17905640998
 21
18760.56247340102
 31
0.0
  0
LINE
  5
14C
330
14A
100
AcDbEntity
  8
舞台
  6
Continuous
370
    -2
100
AcDbLine
 10
44553.17905640998
 20
18210.56247340102
 30
0.0
 11
44553.17905640998
 21
18010.56247340102
 31
0.0
  0
LINE
  5
14D
330
14A
100
AcDbEntity
  8
舞台
  6
Continuous
370
    -2
100
AcDbLine
 10
44553.17905640998
 20
18960.56247340102
 30
0.0
 11
44553.17905640998
 21
19160.56247340102
 31
0.0
  0
MTEXT
  5
14E
330
14A
100
AcDbEntity
  8
舞台
100
AcDbMText
 10
44553.17905640998
 20
18585.56247340102
 30
0.0
 40
156.25
 41
0.0
 46
0.0
 71
     5
 72
     1
  1
\A1;350
  7
_TCW_TXTSTY_1
 73
     1
 44
1.0
  0
POINT
  5
14F
330
14A
100
AcDbEntity
  8
Defpoints
 62
     0
100
AcDbPoint
 10
45053.17905640998
 20
18410.56247340102
 30
0.0
  0
POINT
  5
150
330
14A
100
AcDbEntity
  8
Defpoints
 62
     0
100
AcDbPoint
 10
45053.17905640998
 20
18760.56247340102
 30
0.0
  0
POINT
  5
151
330
14A
100
AcDbEntity
  8
Defpoints
 62
     0
100
AcDbPoint
 10
44553.17905640998
 20
18760.56247340102
 30
0.0
  0
ENDBLK
  5
153
330
14A
100
AcDbEntity
  8
0
100
AcDbBlockEnd
  0
BLOCK
  5
15D
330
155
100
AcDbEntity
  8
0
100
AcDbBlockBegin
  2
*D11
 70
     1
 10
0.0
 20
0.0
 30
0.0
  3
*D11
  1

  0
LINE
  5
156
330
155
100
AcDbEntity
  8
舞台
  6
Continuous
370
    -2
100
AcDbLine
 10
44553.17905640997
 20
18760.56247340103
 30
0.0
 11
44553.17905640998
 21
19060.56247340103
 31
0.0
  0
LINE
  5
157
330
155
100
AcDbEntity
  8
舞台
  6
Continuous
370
    -2
100
AcDbLine
 10
44553.17905640996
 20
18560.56247340103
 30
0.0
 11
44553.17905640996
 21
18360.56247340103
 31
0.0
  0
LINE
  5
158
330
155
100
AcDbEntity
  8
舞台
  6
Continuous
370
    -2
100
AcDbLine
 10
44553.17905640999
 20
19260.56247340103
 30
0.0
 11
44553.17905640999
 21
19460.56247340103
 31
0.0
  0
MTEXT
  5
159
330
155
100
AcDbEntity
  8
舞台
100
AcDbMText
 10
44553.17905640998
 20
18910.56247340103
 30
0.0
 40
156.25
 41
0.0
 46
0.0
 71
     5
 72
     1
  1
\A1;300
  7
_TCW_TXTSTY_1
 73
     1
 44
1.0
  0
POINT
  5
15A
330
155
100
AcDbEntity
  8
Defpoints
 62
     0
100
AcDbPoint
 10
45053.17905640997
 20
18760.56247340102
 30
0.0
  0
POINT
  5
15B
330
155
100
AcDbEntity
  8
Defpoints
 62
     0
100
AcDbPoint
 10
45053.17905640998
 20
19060.56247340102
 30
0.0
  0
POINT
  5
15C
330
155
100
AcDbEntity
  8
Defpoints
 62
     0
100
AcDbPoint
 10
44553.17905640998
 20
19060.56247340103
 30
0.0
  0
ENDBLK
  5
15E
330
155
100
AcDbEntity
  8
0
100
AcDbBlockEnd
  0
BLOCK
  5
169
330
160
100
AcDbEntity
  8
0
100
AcDbBlockBegin
  2
*D12
 70
     1
 10
0.0
 20
0.0
 30
0.0
  3
*D12
  1

  0
LINE
  5
161
330
160
100
AcDbEntity
  8
舞台
  6
Continuous
370
    -2
100
AcDbLine
 10
44553.17905640998
 20
19060.56247340102
 30
0.0
 11
44553.17905640998
 21
19082.43747340102
 31
0.0
  0
LINE
  5
162
330
160
100
AcDbEntity
  8
舞台
  6
Continuous
370
    -2
100
AcDbLine
 10
44553.17905640998
 20
20060.56247340102
 30
0.0
 11
44553.17905640998
 21
20038.68747340102
 31
0.0
  0
LINE
  5
163
330
160
100
AcDbEntity
  8
舞台
  6
Continuous
370
    -2
100
AcDbLine
 10
44553.17905640998
 20
18860.56247340102
 30
0.0
 11
44553.17905640998
 21
18660.56247340102
 31
0.0
  0
LINE
  5
164
330
160
100
AcDbEntity
  8
舞台
  6
Continuous
370
    -2
100
AcDbLine
 10
44553.17905640998
 20
20260.56247340102
 30
0.0
 11
44553.17905640998
 21
20460.56247340102
 31
0.0
  0
MTEXT
  5
165
330
160
100
AcDbEntity
  8
舞台
100
AcDbMText
 10
44553.17905640998
 20
19560.56247340102
 30
0.0
 40
156.25
 41
0.0
 46
0.0
 71
     5
 72
     1
  1
\A1;1000
  7
_TCW_TXTSTY_1
 73
     1
 44
1.0
  0
POINT
  5
166
330
160
100
AcDbEntity
  8
Defpoints
 62
     0
100
AcDbPoint
 10
45053.17905640998
 20
19060.56247340102
 30
0.0
  0
POINT
  5
167
330
160
100
AcDbEntity
  8
Defpoints
 62
     0
100
AcDbPoint
 10
45053.17905640998
 20
20060.56247340102
 30
0.0
  0
POINT
  5
168
330
160
100
AcDbEntity
  8
Defpoints
 62
     0
100
AcDbPoint
 10
44553.17905640998
 20
20060.56247340102
 30
0.0
  0
ENDBLK
  5
16A
330
160
100
AcDbEntity
  8
0
100
AcDbBlockEnd
  0
BLOCK
  5
174
330
16C
100
AcDbEntity
  8
0
100
AcDbBlockBegin
  2
*D13
 70
     1
 10
0.0
 20
0.0
 30
0.0
  3
*D13
  1

  0
LINE
  5
16D
330
16C
100
AcDbEntity
  8
舞台
  6
Continuous
370
    -2
100
AcDbLine
 10
44553.17905640997
 20
20060.56247340102
 30
0.0
 11
44553.17905640998
 21
20610.56247340103
 31
0.0
  0
LINE
  5
16E
330
16C
100
AcDbEntity
  8
舞台
  6
Continuous
370
    -2
100
AcDbLine
 10
44553.17905640997
 20
19860.56247340102
 30
0.0
 11
44553.17905640997
 21
19660.56247340102
 31
0.0
  0
LINE
  5
16F
330
16C
100
AcDbEntity
  8
舞台
  6
Continuous
370
    -2
100
AcDbLine
 10
44553.17905640998
 20
20810.56247340103
 30
0.0
 11
44553.17905640998
 21
21010.56247340103
 31
0.0
  0
MTEXT
  5
170
330
16C
100
AcDbEntity
  8
舞台
100
AcDbMText
 10
44553.17905640998
 20
20335.56247340103
 30
0.0
 40
156.25
 41
0.0
 46
0.0
 71
     5
 72
     1
  1
\A1;550
  7
_TCW_TXTSTY_1
 73
     1
 44
1.0
  0
POINT
  5
171
330
16C
100
AcDbEntity
  8
Defpoints
 62
     0
100
AcDbPoint
 10
45053.17905640997
 20
20060.56247340102
 30
0.0
  0
POINT
  5
172
330
16C
100
AcDbEntity
  8
Defpoints
 62
     0
100
AcDbPoint
 10
45053.17905640998
 20
20610.56247340102
 30
0.0
  0
POINT
  5
173
330
16C
100
AcDbEntity
  8
Defpoints
 62
     0
100
AcDbPoint
 10
44553.17905640998
 20
20610.56247340103
 30
0.0
  0
ENDBLK
  5
175
330
16C
100
AcDbEntity
  8
0
100
AcDbBlockEnd
  0
BLOCK
  5
17F
330
177
100
AcDbEntity
  8
0
100
AcDbBlockBegin
  2
*D14
 70
     1
 10
0.0
 20
0.0
 30
0.0
  3
*D14
  1

  0
LINE
  5
178
330
177
100
AcDbEntity
  8
舞台
  6
Continuous
370
    -2
100
AcDbLine
 10
44553.17905640998
 20
20610.56247340102
 30
0.0
 11
44553.17905640998
 21
21110.56247340102
 31
0.0
  0
LINE
  5
179
330
177
100
AcDbEntity
  8
舞台
  6
Continuous
370
    -2
100
AcDbLine
 10
44553.17905640998
 20
20410.56247340102
 30
0.0
 11
44553.17905640998
 21
20210.56247340102
 31
0.0
  0
LINE
  5
17A
330
177
100
AcDbEntity
  8
舞台
  6
Continuous
370
    -2
100
AcDbLine
 10
44553.17905640998
 20
21310.56247340102
 30
0.0
 11
44553.17905640998
 21
21510.56247340102
 31
0.0
  0
MTEXT
  5
17B
330
177
100
AcDbEntity
  8
舞台
100
AcDbMText
 10
44553.17905640998
 20
20860.56247340102
 30
0.0
 40
156.25
 41
0.0
 46
0.0
 71
     5
 72
     1
  1
\A1;500
  7
_TCW_TXTSTY_1
 73
     1
 44
1.0
  0
POINT
  5
17C
330
177
100
AcDbEntity
  8
Defpoints
 62
     0
100
AcDbPoint
 10
45053.17905640998
 20
20610.56247340102
 30
0.0
  0
POINT
  5
17D
330
177
100
AcDbEntity
  8
Defpoints
 62
     0
100
AcDbPoint
 10
45053.17905640998
 20
21110.56247340102
 30
0.0
  0
POINT
  5
17E
330
177
100
AcDbEntity
  8
Defpoints
 62
     0
100
AcDbPoint
 10
44553.17905640998
 20
21110.56247340102
 30
0.0
  0
ENDBLK
  5
180
330
177
100
AcDbEntity
  8
0
100
AcDbBlockEnd
  0
BLOCK
  5
18A
330
182
100
AcDbEntity
  8
0
100
AcDbBlockBegin
  2
*D15
 70
     1
 10
0.0
 20
0.0
 30
0.0
  3
*D15
  1

  0
LINE
  5
183
330
182
100
AcDbEntity
  8
舞台
  6
Continuous
370
    -2
100
AcDbLine
 10
44553.17905640998
 20
21110.56247340102
 30
0.0
 11
44553.17905640998
 21
21410.56247340102
 31
0.0
  0
LINE
  5
184
330
182
100
AcDbEntity
  8
舞台
  6
Continuous
370
    -2
100
AcDbLine
 10
44553.17905640998
 20
20910.56247340102
 30
0.0
 11
44553.17905640998
 21
20710.56247340102
 31
0.0
  0
LINE
  5
185
330
182
100
AcDbEntity
  8
舞台
  6
Continuous
370
    -2
100
AcDbLine
 10
44553.17905640998
 20
21610.56247340102
 30
0.0
 11
44553.17905640998
 21
21810.56247340102
 31
0.0
  0
MTEXT
  5
186
330
182
100
AcDbEntity
  8
舞台
100
AcDbMText
 10
44553.17905640998
 20
21260.56247340102
 30
0.0
 40
156.25
 41
0.0
 46
0.0
 71
     5
 72
     1
  1
\A1;300
  7
_TCW_TXTSTY_1
 73
     1
 44
1.0
  0
POINT
  5
187
330
182
100
AcDbEntity
  8
Defpoints
 62
     0
100
AcDbPoint
 10
45053.17905640998
 20
21110.56247340102
 30
0.0
  0
POINT
  5
188
330
182
100
AcDbEntity
  8
Defpoints
 62
     0
100
AcDbPoint
 10
45053.17905640998
 20
21410.56247340102
 30
0.0
  0
POINT
  5
189
330
182
100
AcDbEntity
  8
Defpoints
 62
     0
100
AcDbPoint
 10
44553.17905640998
 20
21410.56247340102
 30
0.0
  0
ENDBLK
  5
18B
330
182
100
AcDbEntity
  8
0
100
AcDbBlockEnd
  0
BLOCK
  5
195
330
18D
100
AcDbEntity
  8
0
100
AcDbBlockBegin
  2
*D16
 70
     1
 10
0.0
 20
0.0
 30
0.0
  3
*D16
  1

  0
LINE
  5
18E
330
18D
100
AcDbEntity
  8
舞台
  6
Continuous
370
    -2
100
AcDbLine
 10
44553.17905640997
 20
21410.56247340103
 30
0.0
 11
44553.17905640998
 21
21810.56247340103
 31
0.0
  0
LINE
  5
18F
330
18D
100
AcDbEntity
  8
舞台
  6
Continuous
370
    -2
100
AcDbLine
 10
44553.17905640996
 20
21210.56247340103
 30
0.0
 11
44553.17905640996
 21
21010.56247340103
 31
0.0
  0
LINE
  5
190
330
18D
100
AcDbEntity
  8
舞台
  6
Continuous
370
    -2
100
AcDbLine
 10
44553.17905640998
 20
22010.56247340103
 30
0.0
 11
44553.17905640998
 21
22210.56247340103
 31
0.0
  0
MTEXT
  5
191
330
18D
100
AcDbEntity
  8
舞台
100
AcDbMText
 10
44553.17905640998
 20
21610.56247340103
 30
0.0
 40
156.25
 41
0.0
 46
0.0
 71
     5
 72
     1
  1
\A1;400
  7
_TCW_TXTSTY_1
 73
     1
 44
1.0
  0
POINT
  5
192
330
18D
100
AcDbEntity
  8
Defpoints
 62
     0
100
AcDbPoint
 10
45053.17905640997
 20
21410.56247340102
 30
0.0
  0
POINT
  5
193
330
18D
100
AcDbEntity
  8
Defpoints
 62
     0
100
AcDbPoint
 10
45053.17905640998
 20
21810.56247340102
 30
0.0
  0
POINT
  5
194
330
18D
100
AcDbEntity
  8
Defpoints
 62
     0
100
AcDbPoint
 10
44553.17905640998
 20
21810.56247340103
 30
0.0
  0
ENDBLK
  5
196
330
18D
100
AcDbEntity
  8
0
100
AcDbBlockEnd
  0
BLOCK
  5
1A0
330
198
100
AcDbEntity
  8
0
100
AcDbBlockBegin
  2
*D17
 70
     1
 10
0.0
 20
0.0
 30
0.0
  3
*D17
  1

  0
LINE
  5
199
330
198
100
AcDbEntity
  8
舞台
  6
Continuous
370
    -2
100
AcDbLine
 10
44553.17905640998
 20
21810.56247340102
 30
0.0
 11
44553.17905640998
 21
22410.56247340102
 31
0.0
  0
LINE
  5
19A
330
198
100
AcDbEntity
  8
舞台
  6
Continuous
370
    -2
100
AcDbLine
 10
44553.17905640998
 20
21610.56247340102
 30
0.0
 11
44553.17905640998
 21
21410.56247340102
 31
0.0
  0
LINE
  5
19B
330
198
100
AcDbEntity
  8
舞台
  6
Continuous
370
    -2
100
AcDbLine
 10
44553.17905640998
 20
22610.56247340102
 30
0.0
 11
44553.17905640998
 21
22810.56247340102
 31
0.0
  0
MTEXT
  5
19C
330
198
100
AcDbEntity
  8
舞台
100
AcDbMText
 10
44553.17905640998
 20
22110.56247340102
 30
0.0
 40
156.25
 41
0.0
 46
0.0
 71
     5
 72
     1
  1
\A1;600
  7
_TCW_TXTSTY_1
 73
     1
 44
1.0
  0
POINT
  5
19D
330
198
100
AcDbEntity
  8
Defpoints
 62
     0
100
AcDbPoint
 10
45053.17905640998
 20
21810.56247340102
 30
0.0
  0
POINT
  5
19E
330
198
100
AcDbEntity
  8
Defpoints
 62
     0
100
AcDbPoint
 10
45053.17905640998
 20
22410.56247340102
 30
0.0
  0
POINT
  5
19F
330
198
100
AcDbEntity
  8
Defpoints
 62
     0
100
AcDbPoint
 10
44553.17905640998
 20
22410.56247340102
 30
0.0
  0
ENDBLK
  5
1A1
330
198
100
AcDbEntity
  8
0
100
AcDbBlockEnd
  0
BLOCK
  5
1AB
330
1A3
100
AcDbEntity
  8
0
100
AcDbBlockBegin
  2
*D18
 70
     1
 10
0.0
 20
0.0
 30
0.0
  3
*D18
  1

  0
LINE
  5
1A4
330
1A3
100
AcDbEntity
  8
舞台
  6
Continuous
370
    -2
100
AcDbLine
 10
44553.17905640997
 20
23110.56247340103
 30
0.0
 11
44553.17905640998
 21
23360.56247340103
 31
0.0
  0
LINE
  5
1A5
330
1A3
100
AcDbEntity
  8
舞台
  6
Continuous
370
    -2
100
AcDbLine
 10
44553.17905640996
 20
22910.56247340103
 30
0.0
 11
44553.17905640996
 21
22710.56247340103
 31
0.0
  0
LINE
  5
1A6
330
1A3
100
AcDbEntity
  8
舞台
  6
Continuous
370
    -2
100
AcDbLine
 10
44553.17905640999
 20
23560.56247340103
 30
0.0
 11
44553.17905640999
 21
23760.56247340103
 31
0.0
  0
MTEXT
  5
1A7
330
1A3
100
AcDbEntity
  8
舞台
100
AcDbMText
 10
44553.17905640998
 20
23235.56247340103
 30
0.0
 40
156.25
 41
0.0
 46
0.0
 71
     5
 72
     1
  1
\A1;250
  7
_TCW_TXTSTY_1
 73
     1
 44
1.0
  0
POINT
  5
1A8
330
1A3
100
AcDbEntity
  8
Defpoints
 62
     0
100
AcDbPoint
 10
45053.17905640997
 20
23110.56247340102
 30
0.0
  0
POINT
  5
1A9
330
1A3
100
AcDbEntity
  8
Defpoints
 62
     0
100
AcDbPoint
 10
45053.17905640998
 20
23360.56247340102
 30
0.0
  0
POINT
  5
1AA
330
1A3
100
AcDbEntity
  8
Defpoints
 62
     0
100
AcDbPoint
 10
44553.17905640998
 20
23360.56247340103
 30
0.0
  0
ENDBLK
  5
1AC
330
1A3
100
AcDbEntity
  8
0
100
AcDbBlockEnd
  0
BLOCK
  5
1C9
330
1C1
100
AcDbEntity
  8
0
100
AcDbBlockBegin
  2
*D19
 70
     1
 10
0.0
 20
0.0
 30
0.0
  3
*D19
  1

  0
LINE
  5
1C2
330
1C1
100
AcDbEntity
  8
舞台
  6
Continuous
370
    -2
100
AcDbLine
 10
44553.17905640998
 20
22860.56247340102
 30
0.0
 11
44553.17905640998
 21
22410.56247340102
 31
0.0
  0
LINE
  5
1C3
330
1C1
100
AcDbEntity
  8
舞台
  6
Continuous
370
    -2
100
AcDbLine
 10
44553.17905640998
 20
23060.56247340102
 30
0.0
 11
44553.17905640998
 21
23260.56247340102
 31
0.0
  0
LINE
  5
1C4
330
1C1
100
AcDbEntity
  8
舞台
  6
Continuous
370
    -2
100
AcDbLine
 10
44553.17905640998
 20
22210.56247340102
 30
0.0
 11
44553.17905640998
 21
22010.56247340102
 31
0.0
  0
MTEXT
  5
1C5
330
1C1
100
AcDbEntity
  8
舞台
100
AcDbMText
 10
44553.17905640998
 20
22635.56247340102
 30
0.0
 40
156.25
 41
0.0
 46
0.0
 71
     5
 72
     1
  1
\A1;450
  7
_TCW_TXTSTY_1
 73
     1
 44
1.0
  0
POINT
  5
1C6
330
1C1
100
AcDbEntity
  8
Defpoints
 62
     0
100
AcDbPoint
 10
45053.17905640998
 20
22860.56247340102
 30
0.0
  0
POINT
  5
1C7
330
1C1
100
AcDbEntity
  8
Defpoints
 62
     0
100
AcDbPoint
 10
45053.17905640998
 20
22410.56247340102
 30
0.0
  0
POINT
  5
1C8
330
1C1
100
AcDbEntity
  8
Defpoints
 62
     0
100
AcDbPoint
 10
44553.17905640998
 20
22410.56247340102
 30
0.0
  0
ENDBLK
  5
1CA
330
1C1
100
AcDbEntity
  8
0
100
AcDbBlockEnd
  0
BLOCK
  5
1D4
330
1CC
100
AcDbEntity
  8
0
100
AcDbBlockBegin
  2
*D20
 70
     1
 10
0.0
 20
0.0
 30
0.0
  3
*D20
  1

  0
LINE
  5
1CD
330
1CC
100
AcDbEntity
  8
舞台
  6
Continuous
370
    -2
100
AcDbLine
 10
44553.17905640998
 20
22860.56247340102
 30
0.0
 11
44553.17905640998
 21
23110.56247340102
 31
0.0
  0
LINE
  5
1CE
330
1CC
100
AcDbEntity
  8
舞台
  6
Continuous
370
    -2
100
AcDbLine
 10
44553.17905640998
 20
22660.56247340102
 30
0.0
 11
44553.17905640998
 21
22460.56247340102
 31
0.0
  0
LINE
  5
1CF
330
1CC
100
AcDbEntity
  8
舞台
  6
Continuous
370
    -2
100
AcDbLine
 10
44553.17905640998
 20
23310.56247340102
 30
0.0
 11
44553.17905640998
 21
23510.56247340102
 31
0.0
  0
MTEXT
  5
1D0
330
1CC
100
AcDbEntity
  8
舞台
100
AcDbMText
 10
44553.17905640998
 20
22985.56247340102
 30
0.0
 40
156.25
 41
0.0
 46
0.0
 71
     5
 72
     1
  1
\A1;250
  7
_TCW_TXTSTY_1
 73
     1
 44
1.0
  0
POINT
  5
1D1
330
1CC
100
AcDbEntity
  8
Defpoints
 62
     0
100
AcDbPoint
 10
45053.17905640998
 20
22860.56247340102
 30
0.0
  0
POINT
  5
1D2
330
1CC
100
AcDbEntity
  8
Defpoints
 62
     0
100
AcDbPoint
 10
45053.17905640998
 20
23110.56247340102
 30
0.0
  0
POINT
  5
1D3
330
1CC
100
AcDbEntity
  8
Defpoints
 62
     0
100
AcDbPoint
 10
44553.17905640998
 20
23110.56247340102
 30
0.0
  0
ENDBLK
  5
1D5
330
1CC
100
AcDbEntity
  8
0
100
AcDbBlockEnd
  0
BLOCK
  5
2BE
330
2B7
100
AcDbEntity
  8
0
100
AcDbBlockBegin
  2
*D21
 70
     1
 10
0.0
 20
0.0
 30
0.0
  3
*D21
  1

  0
LINE
  5
2B8
330
2B7
100
AcDbEntity
  8
舞台
  6
Continuous
370
    -2
100
AcDbLine
 10
44545.10996516287
 20
23160.56247340102
 30
0.0
 11
44545.10996516287
 21
22960.56247340102
 31
0.0
  0
LINE
  5
2B9
330
2B7
100
AcDbEntity
  8
舞台
  6
Continuous
370
    -2
100
AcDbLine
 10
44545.10996516287
 20
23810.56247340102
 30
0.0
 11
44545.10996516287
 21
24010.56247340102
 31
0.0
  0
MTEXT
  5
2BA
330
2B7
100
AcDbEntity
  8
舞台
100
AcDbMText
 10
44545.10996516287
 20
23485.56247340102
 30
0.0
 40
156.25
 41
0.0
 46
0.0
 71
     5
 72
     1
  1
\A1;250
  7
_TCW_TXTSTY_1
 73
     1
 44
1.0
  0
POINT
  5
2BB
330
2B7
100
AcDbEntity
  8
Defpoints
 62
     0
100
AcDbPoint
 10
45053.17905640998
 20
23360.56247340102
 30
0.0
  0
POINT
  5
2BC
330
2B7
100
AcDbEntity
  8
Defpoints
 62
     0
100
AcDbPoint
 10
45053.17905640998
 20
23610.56247340102
 30
0.0
  0
POINT
  5
2BD
330
2B7
100
AcDbEntity
  8
Defpoints
 62
     0
100
AcDbPoint
 10
44545.10996516287
 20
23610.56247340102
 30
0.0
  0
ENDBLK
  5
2BF
330
2B7
100
AcDbEntity
  8
0
100
AcDbBlockEnd
  0
ENDSEC
  0
SECTION
  2
ENTITIES
  0
LINE
  5
85
330
1F
100
AcDbEntity
  8
中央
  6
$MARGINS
370
     0
100
AcDbLine
 10
28930.52940998003
 20
32260.07672760366
 30
0.0
 11
28930.52940998003
 21
5142.756867286298
 31
0.0
  0
LINE
  5
86
330
1F
100
AcDbEntity
  8
中央
370
     0
100
AcDbLine
 10
6955.216309603085
 20
13410.56247340102
 30
0.0
 11
51501.23276677114
 21
13410.56247340102
 31
0.0
  0
LINE
  5
87
330
1F
100
AcDbEntity
  8
中央
370
     0
100
AcDbLine
 10
16380.52940998003
 20
32260.07672760366
 30
0.0
 11
16380.52940998003
 21
5142.756867286298
 31
0.0
  0
LINE
  5
88
330
1F
100
AcDbEntity
  8
中央
370
     0
100
AcDbLine
 10
41480.52940998004
 20
32260.07672760366
 30
0.0
 11
41480.52940998004
 21
5142.756867286298
 31
0.0
  0
LINE
  5
89
330
1F
100
AcDbEntity
  8
中央
370
     0
100
AcDbLine
 10
47700.52940998004
 20
32260.07672760366
 30
0.0
 11
47700.52940998004
 21
5142.756867286298
 31
0.0
  0
LINE
  5
8A
330
1F
100
AcDbEntity
  8
中央
370
     0
100
AcDbLine
 10
11860.52940998003
 20
32260.07672760366
 30
0.0
 11
11860.52940998003
 21
5142.756867286298
 31
0.0
  0
LINE
  5
8B
330
1F
100
AcDbEntity
  8
中央
370
     0
100
AcDbLine
 10
6955.216309603085
 20
7890.56247340102
 30
0.0
 11
51501.23276677114
 21
7890.56247340102
 31
0.0
  0
LINE
  5
8C
330
1F
100
AcDbEntity
  8
中央
370
     0
100
AcDbLine
 10
6955.216309603085
 20
2370.56247340102
 30
0.0
 11
51501.23276677114
 21
2370.56247340102
 31
0.0
  0
LINE
  5
8D
330
1F
100
AcDbEntity
  8
中央
370
     0
100
AcDbLine
 10
6955.216309603085
 20
24410.56247340102
 30
0.0
 11
51501.23276677114
 21
24410.56247340102
 31
0.0
  0
LINE
  5
8E
330
1F
100
AcDbEntity
  8
中央
370
     0
100
AcDbLine
 10
6955.216309603085
 20
29845.56247340102
 30
0.0
 11
51501.23276677114
 21
29845.56247340102
 31
0.0
  0
LINE
  5
8F
330
1F
100
AcDbEntity
  8
中央
370
     0
100
AcDbLine
 10
21900.52940998003
 20
32260.07672760366
 30
0.0
 11
21900.52940998003
 21
5142.756867286298
 31
0.0
  0
LINE
  5
90
330
1F
100
AcDbEntity
  8
中央
370
     0
100
AcDbLine
 10
35960.52940998004
 20
32260.07672760366
 30
0.0
 11
35960.52940998004
 21
5142.756867286298
 31
0.0
  0
LWPOLYLINE
  5
91
330
1F
100
AcDbEntity
  8
舞台
370
     0
100
AcDbPolyline
 90
        3
 70
   128
 43
0.0
 10
12260.52940998003
 20
13755.56247340102
 10
13560.52940998003
 20
13755.56247340102
 10
13560.52940998003
 20
24560.56247340102
  0
LWPOLYLINE
  5
92
330
1F
100
AcDbEntity
  8
舞台
370
     0
100
AcDbPolyline
 90
        3
 70
   128
 43
0.0
 10
13685.52940998003
 20
24560.56247340102
 10
13685.52940998003
 20
13655.56247340102
 10
12260.52940998003
 20
13655.56247340102
  0
LINE
  5
93
330
1F
100
AcDbEntity
  8
舞台
370
     0
100
AcDbLine
 10
12710.52940998003
 20
19685.56247340102
 30
0.0
 11
12710.52940998003
 21
17935.56247340102
 31
0.0
  0
LINE
  5
94
330
1F
100
AcDbEntity
  8
舞台
370
     0
100
AcDbLine
 10
12810.52940998003
 20
19685.56247340102
 30
0.0
 11
12810.52940998003
 21
17935.56247340102
 31
0.0
  0
LINE
  5
95
330
1F
100
AcDbEntity
  8
舞台
370
     0
100
AcDbLine
 10
12910.52940998003
 20
19685.56247340102
 30
0.0
 11
12910.52940998003
 21
17935.56247340102
 31
0.0
  0
LINE
  5
96
330
1F
100
AcDbEntity
  8
中央
370
     0
100
AcDbLine
 10
13860.52940998003
 20
32260.07672760366
 30
0.0
 11
13860.52940998003
 21
5142.756867286298
 31
0.0
  0
LINE
  5
97
330
1F
100
AcDbEntity
  8
中央
370
     0
100
AcDbLine
 10
13760.52940998003
 20
32260.07672760366
 30
0.0
 11
13760.52940998003
 21
5142.756867286298
 31
0.0
  0
LINE
  5
98
330
1F
100
AcDbEntity
  8
中央
370
     0
100
AcDbLine
 10
13960.52940998003
 20
32260.07672760366
 30
0.0
 11
13960.52940998003
 21
5142.756867286298
 31
0.0
  0
LINE
  5
99
330
1F
100
AcDbEntity
  8
中央
370
     0
100
AcDbLine
 10
13510.52940998003
 20
32260.07672760366
 30
0.0
 11
13510.52940998003
 21
5142.756867286298
 31
0.0
  0
LINE
  5
9A
102
{ACAD_REACTORS
330
A3
102
}
330
1F
100
AcDbEntity
  8
舞台
370
     0
100
AcDbLine
 10
22607.50187884532
 20
10263.86912133052
 30
0.0
 11
22027.14497880707
 21
8093.838973361419
 31
0.0
  0
LINE
  5
9B
102
{ACAD_REACTORS
330
A3
102
}
330
1F
100
AcDbEntity
  8
舞台
370
     0
100
AcDbLine
 10
19578.32501474509
 20
6678.465983723067
 30
0.0
 11
16380.52940998003
 21
7533.690389648604
 31
0.0
  0
ARC
  5
9C
102
{ACAD_REACTORS
330
A3
102
}
330
1F
100
AcDbEntity
  8
舞台
370
     0
100
AcDbCircle
 10
20095.04849454268
 20
8610.56247340102
 30
0.0
 40
2000.0
100
AcDbArc
 50
255.0271219743403
 51
345.0271233794394
  0
LINE
  5
9D
102
{ACAD_REACTORS
330
A3
102
}
330
1F
100
AcDbEntity
  8
舞台
370
     0
100
AcDbLine
 10
24339.28777017716
 20
11410.56247340102
 30
0.0
 11
33521.771049783
 21
11410.56247340102
 31
0.0
  0
ARC
  5
9E
102
{ACAD_REACTORS
330
A3
102
}
330
1F
100
AcDbEntity
  8
舞台
370
     0
100
AcDbCircle
 10
24417.04493582926
 20
9412.07458922715
 30
0.0
 40
2000.0
100
AcDbArc
 50
87.77185819343661
 51
154.7925293485143
  0
LINE
  5
9F
102
{ACAD_REACTORS
330
A3
102
}
330
1F
100
AcDbEntity
  8
舞台
370
     0
100
AcDbLine
 10
35253.55694111474
 20
10263.86912133052
 30
0.0
 11
35833.913841153
 21
8093.838973361422
 31
0.0
  0
LINE
  5
A0
102
{ACAD_REACTORS
330
A3
102
}
330
1F
100
AcDbEntity
  8
舞台
370
     0
100
AcDbLine
 10
38282.73380521498
 20
6678.465983723069
 30
0.0
 11
41480.52940998004
 21
7533.690389648607
 31
0.0
  0
ARC
  5
A1
102
{ACAD_REACTORS
330
A3
102
}
330
1F
100
AcDbEntity
  8
舞台
370
     0
100
AcDbCircle
 10
37766.01032541739
 20
8610.562473401022
 30
0.0
 40
2000.0
100
AcDbArc
 50
194.9728766205606
 51
284.9728780256598
  0
ARC
  5
A2
102
{ACAD_REACTORS
330
A3
102
}
330
1F
100
AcDbEntity
  8
舞台
370
     0
100
AcDbCircle
 10
33444.01388413081
 20
9412.074589227153
 30
0.0
 40
1999.999999999998
100
AcDbArc
 50
25.20747065148575
 51
92.2281418065635
  0
LINE
  5
A6
330
1F
100
AcDbEntity
  8
中央
370
     0
100
AcDbLine
 10
6955.216309603085
 20
26660.56247340102
 30
0.0
 11
51501.23276677114
 21
26660.56247340102
 31
0.0
  0
LINE
  5
A7
330
1F
100
AcDbEntity
  8
中央
370
     0
100
AcDbLine
 10
34760.52940998004
 20
32260.07672760366
 30
0.0
 11
34760.52940998004
 21
5142.756867286298
 31
0.0
  0
LINE
  5
A8
330
1F
100
AcDbEntity
  8
中央
370
     0
100
AcDbLine
 10
6955.216309603085
 20
26860.56247340102
 30
0.0
 11
51501.23276677114
 21
26860.56247340102
 31
0.0
  0
LINE
  5
A9
330
1F
100
AcDbEntity
  8
舞台
370
     0
100
AcDbLine
 10
34960.52940998004
 20
27910.56247340102
 30
0.0
 11
41080.52940998004
 21
27910.56247340102
 31
0.0
  0
LINE
  5
AA
330
1F
100
AcDbEntity
  8
舞台
370
     0
100
AcDbLine
 10
34960.52940998004
 20
28010.56247340102
 30
0.0
 11
41080.52940998004
 21
28010.56247340102
 31
0.0
  0
LWPOLYLINE
  5
AB
330
1F
100
AcDbEntity
  8
舞台
 62
   251
420
  5526612
370
     0
100
AcDbPolyline
 90
        4
 70
   129
 43
0.0
 10
41280.52940998004
 20
27115.56247340102
 10
41480.52940998004
 20
27115.56247340102
 10
41480.52940998004
 20
25310.56247340102
 10
41280.52940998004
 20
25310.56247340102
  0
LWPOLYLINE
  5
AC
330
1F
100
AcDbEntity
  8
舞台
 62
   251
420
  5526612
370
     0
100
AcDbPolyline
 90
        4
 70
   129
 43
0.0
 10
41880.52940998004
 20
24410.56247340102
 10
47318.94196712179
 20
24410.56247340102
 10
47318.94196712179
 20
24551.60608216454
 10
41880.52940998004
 20
24551.60608216454
  0
LWPOLYLINE
  5
AD
330
1F
100
AcDbEntity
  8
舞台
 62
   251
420
  5526612
370
     0
100
AcDbPolyline
 90
        4
 70
   129
 43
0.0
 10
46700.52940998004
 20
22835.56247340102
 10
46900.52940998004
 20
22835.56247340102
 10
46900.52940998004
 20
20660.56247340102
 10
46700.52940998004
 20
20660.56247340102
  0
LWPOLYLINE
  5
AE
330
1F
100
AcDbEntity
  8
舞台
 62
   251
420
  5526612
370
     0
100
AcDbPolyline
 90
        4
 70
   129
 43
0.0
 10
46700.52940998004
 20
19560.56247340102
 10
46900.52940998004
 20
19560.56247340102
 10
46900.52940998004
 20
18060.56247340102
 10
46700.52940998004
 20
18060.56247340102
  0
LINE
  5
AF
330
1F
100
AcDbEntity
  8
舞台
 62
   251
420
  5526612
370
     0
100
AcDbLine
 10
46800.52940998004
 20
19560.56247340102
 30
0.0
 11
46800.52940998004
 21
18060.56247340102
 31
0.0
  0
LINE
  5
B0
330
1F
100
AcDbEntity
  8
舞台
 62
   251
420
  5526612
370
     0
100
AcDbLine
 10
46800.52940998004
 20
22835.56247340102
 30
0.0
 11
46800.52940998004
 21
20660.56247340102
 31
0.0
  0
LINE
  5
B1
330
1F
100
AcDbEntity
  8
舞台
  6
$MARGINS
370
     0
100
AcDbLine
 10
21900.52940998003
 20
13755.56247340102
 30
0.0
 11
35960.52940998004
 21
13755.56247340102
 31
0.0
  0
LINE
  5
B2
330
1F
100
AcDbEntity
  8
舞台
  6
$MARGINS
370
     0
100
AcDbLine
 10
16204.52940998003
 20
15573.56247340102
 30
0.0
 11
22202.60936001126
 21
15573.56247340102
 31
0.0
  0
LINE
  5
B3
330
1F
100
AcDbEntity
  8
舞台
  6
$MARGINS
370
     0
100
AcDbLine
 10
22202.60936001126
 20
15573.56247340102
 30
0.0
 11
36406.89617158086
 21
15573.56247340102
 31
0.0
  0
LINE
  5
B4
330
1F
100
AcDbEntity
  8
舞台
  6
$MARGINS
370
     0
100
AcDbLine
 10
36406.89617158086
 20
15573.56247340102
 30
0.0
 11
41656.52940998004
 21
15573.56247340102
 31
0.0
  0
LINE
  5
B5
330
1F
100
AcDbEntity
  8
舞台
  6
$MARGINS
370
     0
100
AcDbLine
 10
16204.52940998004
 20
17391.56247340102
 30
0.0
 11
41656.52940998004
 21
17391.56247340102
 31
0.0
  0
LINE
  5
B6
330
1F
100
AcDbEntity
  8
舞台
  6
$MARGINS
370
     0
100
AcDbLine
 10
16204.52940998004
 20
19209.56247340102
 30
0.0
 11
41656.52940998004
 21
19209.56247340102
 31
0.0
  0
LINE
  5
B7
330
1F
100
AcDbEntity
  8
舞台
  6
$MARGINS
370
     0
100
AcDbLine
 10
16204.52940998004
 20
21027.56247340102
 30
0.0
 11
41656.52940998004
 21
21027.56247340102
 31
0.0
  0
LINE
  5
B8
330
1F
100
AcDbEntity
  8
舞台
  6
$MARGINS
370
     0
100
AcDbLine
 10
16204.52940998004
 20
22845.56247340102
 30
0.0
 11
41656.52940998004
 21
22845.56247340102
 31
0.0
  0
LINE
  5
B9
330
1F
100
AcDbEntity
  8
舞台
  6
$MARGINS
370
     0
100
AcDbLine
 10
28930.52940998003
 20
11410.56247340102
 30
0.0
 11
28930.52940998003
 21
12071.59579007724
 31
0.0
  0
LINE
  5
BA
330
1F
100
AcDbEntity
  8
舞台
  6
$MARGINS
370
     0
100
AcDbLine
 10
28930.52940998003
 20
12311.59122124554
 30
0.0
 11
28930.52940998003
 21
14744.3403385705
 31
0.0
  0
LINE
  5
BB
330
1F
100
AcDbEntity
  8
舞台
  6
$MARGINS
370
     0
100
AcDbLine
 10
28930.52940998003
 20
14983.65837789531
 30
0.0
 11
28930.52940998003
 21
24565.03617976287
 31
0.0
  0
LINE
  5
BC
330
1F
100
AcDbEntity
  8
舞台
  6
$MARGINS
370
     0
100
AcDbLine
 10
27112.52940998004
 20
24060.56247340102
 30
0.0
 11
27112.52940998003
 21
11410.56247340102
 31
0.0
  0
LINE
  5
BD
330
1F
100
AcDbEntity
  8
舞台
  6
$MARGINS
370
     0
100
AcDbLine
 10
25294.52940998004
 20
24560.56247340102
 30
0.0
 11
25294.52940998003
 21
11410.56247340102
 31
0.0
  0
LINE
  5
BE
330
1F
100
AcDbEntity
  8
舞台
  6
$MARGINS
370
     0
100
AcDbLine
 10
23476.52940998004
 20
24560.56247340102
 30
0.0
 11
23476.52940998003
 21
11177.13281649234
 31
0.0
  0
LINE
  5
BF
330
1F
100
AcDbEntity
  8
舞台
  6
$MARGINS
370
     0
100
AcDbLine
 10
21658.52940998004
 20
24060.56247340102
 30
0.0
 11
21658.52940998003
 21
13955.21552657469
 31
0.0
  0
LINE
  5
C0
330
1F
100
AcDbEntity
  8
舞台
  6
$MARGINS
370
     0
100
AcDbLine
 10
21658.52940998003
 20
13955.21552657469
 30
0.0
 11
21658.52940998003
 21
13755.56247340102
 31
0.0
  0
LINE
  5
C1
330
1F
100
AcDbEntity
  8
舞台
  6
$MARGINS
370
     0
100
AcDbLine
 10
21658.52940998003
 20
13238.56247340102
 30
0.0
 11
21658.52940998003
 21
7363.35462101106
 31
0.0
  0
LINE
  5
C2
330
1F
100
AcDbEntity
  8
舞台
  6
$MARGINS
370
     0
100
AcDbLine
 10
19840.52940998004
 20
24560.56247340102
 30
0.0
 11
19840.52940998003
 21
13913.31522397603
 31
0.0
  0
LINE
  5
C3
330
1F
100
AcDbEntity
  8
舞台
  6
$MARGINS
370
     0
100
AcDbLine
 10
19840.52940998003
 20
13686.18250693937
 30
0.0
 11
19840.52940998003
 21
10510.56247340102
 31
0.0
  0
LINE
  5
C4
330
1F
100
AcDbEntity
  8
舞台
  6
$MARGINS
370
     0
100
AcDbLine
 10
19840.52940998003
 20
8678.631530900335
 30
0.0
 11
19840.52940998003
 21
6626.823570320932
 31
0.0
  0
LINE
  5
C5
330
1F
100
AcDbEntity
  8
舞台
  6
$MARGINS
370
     0
100
AcDbLine
 10
18022.52940998004
 20
24560.56247340102
 30
0.0
 11
18022.52940998003
 21
14240.59542514741
 31
0.0
  0
LINE
  5
C6
330
1F
100
AcDbEntity
  8
舞台
  6
$MARGINS
370
     0
100
AcDbLine
 10
18022.52940998003
 20
13310.56247340102
 30
0.0
 11
18022.52940998003
 21
10510.56247340102
 31
0.0
  0
LINE
  5
C7
330
1F
100
AcDbEntity
  8
舞台
  6
$MARGINS
370
     0
100
AcDbLine
 10
18022.52940998003
 20
10310.56247340102
 30
0.0
 11
18022.52940998003
 21
7094.550854764883
 31
0.0
  0
LINE
  5
C8
330
1F
100
AcDbEntity
  8
舞台
  6
$MARGINS
370
     0
100
AcDbLine
 10
16204.52940998004
 20
24060.56247340102
 30
0.0
 11
16204.52940998003
 21
13755.56247340102
 31
0.0
  0
LINE
  5
C9
330
1F
100
AcDbEntity
  8
舞台
  6
$MARGINS
370
     0
100
AcDbLine
 10
18275.52940998003
 20
11937.56247340102
 30
0.0
 11
39585.52940998004
 21
11937.56247340102
 31
0.0
  0
LINE
  5
CA
330
1F
100
AcDbEntity
  8
舞台
  6
$MARGINS
370
     0
100
AcDbLine
 10
20498.61826198455
 20
10119.56247340102
 30
0.0
 11
22568.90824044557
 21
10119.56247340102
 31
0.0
  0
LINE
  5
CB
330
1F
100
AcDbEntity
  8
舞台
  6
$MARGINS
370
     0
100
AcDbLine
 10
35292.1505795145
 20
10119.56247340102
 30
0.0
 11
37263.02484571869
 21
10119.56247340102
 31
0.0
  0
LINE
  5
CC
330
1F
100
AcDbEntity
  8
舞台
  6
$MARGINS
370
     0
100
AcDbLine
 10
38780.52940998004
 20
10119.56247340102
 30
0.0
 11
39838.52940998004
 21
10119.56247340102
 31
0.0
  0
LINE
  5
CD
330
1F
100
AcDbEntity
  8
舞台
  6
$MARGINS
370
     0
100
AcDbLine
 10
18022.52940998003
 20
8301.56247340102
 30
0.0
 11
22082.69893811999
 21
8301.56247340102
 31
0.0
  0
LINE
  5
CE
330
1F
100
AcDbEntity
  8
舞台
  6
$MARGINS
370
     0
100
AcDbLine
 10
35778.35988184009
 20
8301.562473401023
 30
0.0
 11
39838.52940998004
 21
8301.562473401023
 31
0.0
  0
LINE
  5
CF
330
1F
100
AcDbEntity
  8
舞台
  6
$MARGINS
370
     0
100
AcDbLine
 10
30748.52940998004
 20
24560.56247340102
 30
0.0
 11
30748.52940998003
 21
11410.56247340102
 31
0.0
  0
LINE
  5
D0
330
1F
100
AcDbEntity
  8
舞台
  6
$MARGINS
370
     0
100
AcDbLine
 10
32566.52940998004
 20
24560.56247340102
 30
0.0
 11
32566.52940998003
 21
11410.56247340102
 31
0.0
  0
LINE
  5
D1
330
1F
100
AcDbEntity
  8
舞台
  6
$MARGINS
370
     0
100
AcDbLine
 10
34384.52940998004
 20
24560.56247340102
 30
0.0
 11
34384.52940998004
 21
11177.13281649235
 31
0.0
  0
LINE
  5
D2
330
1F
100
AcDbEntity
  8
舞台
  6
$MARGINS
370
     0
100
AcDbLine
 10
36202.52940998004
 20
24663.56247340102
 30
0.0
 11
36202.52940998004
 21
13955.21552657469
 31
0.0
  0
LINE
  5
D3
330
1F
100
AcDbEntity
  8
舞台
  6
$MARGINS
370
     0
100
AcDbLine
 10
36202.52940998004
 20
13955.21552657469
 30
0.0
 11
36202.52940998004
 21
13755.56247340102
 31
0.0
  0
LINE
  5
D4
330
1F
100
AcDbEntity
  8
舞台
  6
$MARGINS
370
     0
100
AcDbLine
 10
36202.52940998004
 20
13238.56247340102
 30
0.0
 11
36202.52940998004
 21
7363.354621011058
 31
0.0
  0
LINE
  5
D5
330
1F
100
AcDbEntity
  8
舞台
  6
$MARGINS
370
     0
100
AcDbLine
 10
38020.52940998004
 20
24663.56247340102
 30
0.0
 11
38020.52940998004
 21
13560.56247340102
 31
0.0
  0
LINE
  5
D6
330
1F
100
AcDbEntity
  8
舞台
  6
$MARGINS
370
     0
100
AcDbLine
 10
38020.52940998004
 20
13310.56247340102
 30
0.0
 11
38020.52940998004
 21
10510.56247340102
 31
0.0
  0
LINE
  5
D7
330
1F
100
AcDbEntity
  8
舞台
  6
$MARGINS
370
     0
100
AcDbLine
 10
38020.52940998004
 20
8572.448583367772
 30
0.0
 11
38020.52940998004
 21
6626.823570320934
 31
0.0
  0
LINE
  5
D8
330
1F
100
AcDbEntity
  8
舞台
  6
$MARGINS
370
     0
100
AcDbLine
 10
39838.52940998004
 20
24663.56247340102
 30
0.0
 11
39838.52940998004
 21
13560.56247340102
 31
0.0
  0
LINE
  5
D9
330
1F
100
AcDbEntity
  8
舞台
  6
$MARGINS
370
     0
100
AcDbLine
 10
39838.52940998004
 20
10310.56247340102
 30
0.0
 11
39838.52940998004
 21
7094.550854764886
 31
0.0
  0
LINE
  5
DA
330
1F
100
AcDbEntity
  8
舞台
  6
$MARGINS
370
     0
100
AcDbLine
 10
41656.52940998004
 20
24060.56247340102
 30
0.0
 11
41656.52940998004
 21
13755.56247340102
 31
0.0
  0
LINE
  5
DB
330
1F
100
AcDbEntity
  8
舞台
  6
$MARGINS
370
     0
100
AcDbLine
 10
35360.52940998004
 20
24663.56247340102
 30
0.0
 11
41080.52940998004
 21
24663.56247340102
 31
0.0
  0
LINE
  5
DC
330
1F
100
AcDbEntity
  8
バトン寸法
370
     0
100
AcDbLine
 10
43553.17905640998
 20
14810.56247340102
 30
0.0
 11
45053.17905640997
 21
14810.56247340102
 31
0.0
  0
LINE
  5
DD
330
1F
100
AcDbEntity
  8
バトン寸法
370
     0
100
AcDbLine
 10
43553.17905640998
 20
15085.56247340102
 30
0.0
 11
45053.17905640998
 21
15085.56247340102
 31
0.0
  0
LINE
  5
DE
330
1F
100
AcDbEntity
  8
バトン寸法
370
     0
100
AcDbLine
 10
43553.17905640998
 20
15535.56247340102
 30
0.0
 11
45053.17905640997
 21
15535.56247340102
 31
0.0
  0
LINE
  5
DF
330
1F
100
AcDbEntity
  8
バトン寸法
370
     0
100
AcDbLine
 10
43553.17905640998
 20
16060.56247340102
 30
0.0
 11
45053.17905640998
 21
16060.56247340102
 31
0.0
  0
LINE
  5
E0
330
1F
100
AcDbEntity
  8
バトン寸法
370
     0
100
AcDbLine
 10
43553.17905640998
 20
16610.56247340102
 30
0.0
 11
45053.17905640998
 21
16610.56247340102
 31
0.0
  0
LINE
  5
E1
330
1F
100
AcDbEntity
  8
バトン寸法
370
     0
100
AcDbLine
 10
43553.17905640998
 20
16910.56247340102
 30
0.0
 11
45053.17905640998
 21
16910.56247340102
 31
0.0
  0
LINE
  5
E2
330
1F
100
AcDbEntity
  8
バトン寸法
370
     0
100
AcDbLine
 10
43553.17905640998
 20
17360.56247340102
 30
0.0
 11
45053.17905640998
 21
17360.56247340102
 31
0.0
  0
LINE
  5
E3
330
1F
100
AcDbEntity
  8
バトン寸法
370
     0
100
AcDbLine
 10
43553.17905640998
 20
17860.56247340102
 30
0.0
 11
45053.17905640998
 21
17860.56247340102
 31
0.0
  0
LINE
  5
E4
330
1F
100
AcDbEntity
  8
バトン寸法
370
     0
100
AcDbLine
 10
43553.17905640998
 20
18410.56247340102
 30
0.0
 11
45053.17905640998
 21
18410.56247340102
 31
0.0
  0
LINE
  5
E5
330
1F
100
AcDbEntity
  8
バトン寸法
370
     0
100
AcDbLine
 10
43553.17905640998
 20
18760.56247340102
 30
0.0
 11
45053.17905640998
 21
18760.56247340102
 31
0.0
  0
LINE
  5
E6
330
1F
100
AcDbEntity
  8
バトン寸法
370
     0
100
AcDbLine
 10
43553.17905640998
 20
19060.56247340102
 30
0.0
 11
45053.17905640998
 21
19060.56247340102
 31
0.0
  0
LINE
  5
E7
330
1F
100
AcDbEntity
  8
バトン寸法
370
     0
100
AcDbLine
 10
43553.17905640998
 20
20060.56247340102
 30
0.0
 11
45053.17905640998
 21
20060.56247340102
 31
0.0
  0
LINE
  5
E8
330
1F
100
AcDbEntity
  8
バトン寸法
370
     0
100
AcDbLine
 10
43553.17905640998
 20
20610.56247340102
 30
0.0
 11
45053.17905640998
 21
20610.56247340102
 31
0.0
  0
LINE
  5
E9
330
1F
100
AcDbEntity
  8
バトン寸法
370
     0
100
AcDbLine
 10
43553.17905640998
 20
21110.56247340102
 30
0.0
 11
45053.17905640998
 21
21110.56247340102
 31
0.0
  0
LINE
  5
EA
330
1F
100
AcDbEntity
  8
バトン寸法
370
     0
100
AcDbLine
 10
43553.17905640998
 20
21410.56247340102
 30
0.0
 11
45053.17905640998
 21
21410.56247340102
 31
0.0
  0
LINE
  5
EB
330
1F
100
AcDbEntity
  8
バトン寸法
370
     0
100
AcDbLine
 10
43553.17905640998
 20
21810.56247340102
 30
0.0
 11
45053.17905640998
 21
21810.56247340102
 31
0.0
  0
LINE
  5
EC
330
1F
100
AcDbEntity
  8
バトン寸法
370
     0
100
AcDbLine
 10
43553.17905640998
 20
22410.56247340102
 30
0.0
 11
45053.17905640998
 21
22410.56247340102
 31
0.0
  0
LINE
  5
ED
330
1F
100
AcDbEntity
  8
バトン寸法
370
     0
100
AcDbLine
 10
43553.17905640998
 20
23110.56247340102
 30
0.0
 11
45053.17905640998
 21
23110.56247340102
 31
0.0
  0
LINE
  5
EE
330
1F
100
AcDbEntity
  8
バトン寸法
370
     0
100
AcDbLine
 10
43553.17905640998
 20
23360.56247340102
 30
0.0
 11
45053.17905640998
 21
23360.56247340102
 31
0.0
  0
LINE
  5
EF
330
1F
100
AcDbEntity
  8
バトン寸法
370
     0
100
AcDbLine
 10
43553.17905640998
 20
23610.56247340102
 30
0.0
 11
45053.17905640998
 21
23610.56247340102
 31
0.0
  0
DIMENSION
  5
F0
330
1F
100
AcDbEntity
  8
舞台
  6
Continuous
100
AcDbDimension
  2
*D2
 10
44553.17905640998
 20
15085.56247340105
 30
0.0
 11
44553.17905640997
 21
14948.06247340105
 31
0.0
 70
    33
  1
<>
 71
     5
 42
275.0000000000018
 73
     0
 74
     0
 75
     0
  3
標準寸法
100
AcDbAlignedDimension
 13
45053.17905640996
 23
14810.56247340102
 33
0.0
 14
45053.17905640998
 24
15085.56247340102
 34
0.0
1001
ACAD
1000
DSTYLE
1002
{
1070
   179
1070
     0
1070
   172
1070
     1
1002
}
  0
DIMENSION
  5
FC
330
1F
100
AcDbEntity
  8
舞台
  6
Continuous
100
AcDbDimension
  2
*D3
 10
44553.17905640998
 20
15535.56247340103
 30
0.0
 11
44553.17905640998
 21
15310.56247340103
 31
0.0
 70
    33
  1
<>
 71
     5
 42
450.0000000000018
 73
     0
 74
     0
 75
     0
  3
標準寸法
100
AcDbAlignedDimension
 13
45053.17905640997
 23
15085.56247340102
 33
0.0
 14
45053.17905640998
 24
15535.56247340102
 34
0.0
1001
ACAD
1000
DSTYLE
1002
{
1070
   179
1070
     0
1070
   172
1070
     1
1002
}
  0
DIMENSION
  5
107
330
1F
100
AcDbEntity
  8
舞台
  6
Continuous
100
AcDbDimension
  2
*D4
 10
44553.17905640998
 20
16060.56247340103
 30
0.0
 11
44553.17905640998
 21
15798.06247340103
 31
0.0
 70
    33
  1
<>
 71
     5
 42
525.0
 73
     0
 74
     0
 75
     0
  3
標準寸法
100
AcDbAlignedDimension
 13
45053.17905640997
 23
15535.56247340102
 33
0.0
 14
45053.17905640998
 24
16060.56247340102
 34
0.0
1001
ACAD
1000
DSTYLE
1002
{
1070
   179
1070
     0
1070
   172
1070
     1
1002
}
  0
DIMENSION
  5
112
330
1F
100
AcDbEntity
  8
舞台
  6
Continuous
100
AcDbDimension
  2
*D5
 10
44553.17905640998
 20
16610.56247340102
 30
0.0
 11
44553.17905640998
 21
16335.56247340102
 31
0.0
 70
    33
  1
<>
 71
     5
 42
550.0
 73
     0
 74
     0
 75
     0
  3
標準寸法
100
AcDbAlignedDimension
 13
45053.17905640998
 23
16060.56247340102
 33
0.0
 14
45053.17905640998
 24
16610.56247340102
 34
0.0
1001
ACAD
1000
DSTYLE
1002
{
1070
   179
1070
     0
1070
   172
1070
     1
1002
}
  0
DIMENSION
  5
11D
330
1F
100
AcDbEntity
  8
舞台
  6
Continuous
100
AcDbDimension
  2
*D6
 10
44553.17905640998
 20
16910.56247340102
 30
0.0
 11
44553.17905640998
 21
16760.56247340102
 31
0.0
 70
    33
  1
<>
 71
     5
 42
300.0
 73
     0
 74
     0
 75
     0
  3
標準寸法
100
AcDbAlignedDimension
 13
45053.17905640998
 23
16610.56247340102
 33
0.0
 14
45053.17905640998
 24
16910.56247340102
 34
0.0
1001
ACAD
1000
DSTYLE
1002
{
1070
   179
1070
     0
1070
   172
1070
     1
1002
}
  0
DIMENSION
  5
128
330
1F
100
AcDbEntity
  8
舞台
  6
Continuous
100
AcDbDimension
  2
*D7
 10
44553.17905640998
 20
17360.56247340102
 30
0.0
 11
44553.17905640998
 21
17135.56247340102
 31
0.0
 70
    33
  1
<>
 71
     5
 42
450.0
 73
     0
 74
     0
 75
     0
  3
標準寸法
100
AcDbAlignedDimension
 13
45053.17905640998
 23
16910.56247340102
 33
0.0
 14
45053.17905640998
 24
17360.56247340102
 34
0.0
1001
ACAD
1000
DSTYLE
1002
{
1070
   179
1070
     0
1070
   172
1070
     1
1002
}
  0
DIMENSION
  5
133
330
1F
100
AcDbEntity
  8
舞台
  6
Continuous
100
AcDbDimension
  2
*D8
 10
44553.17905640998
 20
17860.56247340102
 30
0.0
 11
44553.17905640998
 21
17610.56247340102
 31
0.0
 70
    33
  1
<>
 71
     5
 42
500.0
 73
     0
 74
     0
 75
     0
  3
標準寸法
100
AcDbAlignedDimension
 13
45053.17905640998
 23
17360.56247340102
 33
0.0
 14
45053.17905640998
 24
17860.56247340102
 34
0.0
1001
ACAD
1000
DSTYLE
1002
{
1070
   179
1070
     0
1070
   172
1070
     1
1002
}
  0
DIMENSION
  5
13E
330
1F
100
AcDbEntity
  8
舞台
  6
Continuous
100
AcDbDimension
  2
*D9
 10
44553.17905640998
 20
18410.56247340102
 30
0.0
 11
44553.17905640998
 21
18135.56247340102
 31
0.0
 70
    33
  1
<>
 71
     5
 42
550.0
 73
     0
 74
     0
 75
     0
  3
標準寸法
100
AcDbAlignedDimension
 13
45053.17905640998
 23
17860.56247340102
 33
0.0
 14
45053.17905640998
 24
18410.56247340102
 34
0.0
1001
ACAD
1000
DSTYLE
1002
{
1070
   179
1070
     0
1070
   172
1070
     1
1002
}
  0
DIMENSION
  5
149
330
1F
100
AcDbEntity
  8
舞台
  6
Continuous
100
AcDbDimension
  2
*D10
 10
44553.17905640998
 20
18760.56247340102
 30
0.0
 11
44553.17905640998
 21
18585.56247340102
 31
0.0
 70
    33
  1
<>
 71
     5
 42
350.0
 73
     0
 74
     0
 75
     0
  3
標準寸法
100
AcDbAlignedDimension
 13
45053.17905640998
 23
18410.56247340102
 33
0.0
 14
45053.17905640998
 24
18760.56247340102
 34
0.0
1001
ACAD
1000
DSTYLE
1002
{
1070
   179
1070
     0
1070
   172
1070
     1
1002
}
  0
DIMENSION
  5
154
330
1F
100
AcDbEntity
  8
舞台
  6
Continuous
100
AcDbDimension
  2
*D11
 10
44553.17905640998
 20
19060.56247340103
 30
0.0
 11
44553.17905640998
 21
18910.56247340103
 31
0.0
 70
    33
  1
<>
 71
     5
 42
300.0000000000036
 73
     0
 74
     0
 75
     0
  3
標準寸法
100
AcDbAlignedDimension
 13
45053.17905640997
 23
18760.56247340102
 33
0.0
 14
45053.17905640998
 24
19060.56247340102
 34
0.0
1001
ACAD
1000
DSTYLE
1002
{
1070
   179
1070
     0
1070
   172
1070
     1
1002
}
  0
DIMENSION
  5
15F
330
1F
100
AcDbEntity
  8
舞台
  6
Continuous
100
AcDbDimension
  2
*D12
 10
44553.17905640998
 20
20060.56247340102
 30
0.0
 11
44553.17905640998
 21
19560.56247340102
 31
0.0
 70
    33
  1
<>
 71
     5
 42
1000.0
 73
     0
 74
     0
 75
     0
  3
標準寸法
100
AcDbAlignedDimension
 13
45053.17905640998
 23
19060.56247340102
 33
0.0
 14
45053.17905640998
 24
20060.56247340102
 34
0.0
1001
ACAD
1000
DSTYLE
1002
{
1070
   179
1070
     0
1070
   172
1070
     1
1002
}
  0
DIMENSION
  5
16B
330
1F
100
AcDbEntity
  8
舞台
  6
Continuous
100
AcDbDimension
  2
*D13
 10
44553.17905640998
 20
20610.56247340103
 30
0.0
 11
44553.17905640998
 21
20335.56247340103
 31
0.0
 70
    33
  1
<>
 71
     5
 42
550.0000000000036
 73
     0
 74
     0
 75
     0
  3
標準寸法
100
AcDbAlignedDimension
 13
45053.17905640997
 23
20060.56247340102
 33
0.0
 14
45053.17905640998
 24
20610.56247340102
 34
0.0
1001
ACAD
1000
DSTYLE
1002
{
1070
   179
1070
     0
1070
   172
1070
     1
1002
}
  0
DIMENSION
  5
176
330
1F
100
AcDbEntity
  8
舞台
  6
Continuous
100
AcDbDimension
  2
*D14
 10
44553.17905640998
 20
21110.56247340102
 30
0.0
 11
44553.17905640998
 21
20860.56247340102
 31
0.0
 70
    33
  1
<>
 71
     5
 42
500.0
 73
     0
 74
     0
 75
     0
  3
標準寸法
100
AcDbAlignedDimension
 13
45053.17905640998
 23
20610.56247340102
 33
0.0
 14
45053.17905640998
 24
21110.56247340102
 34
0.0
1001
ACAD
1000
DSTYLE
1002
{
1070
   179
1070
     0
1070
   172
1070
     1
1002
}
  0
DIMENSION
  5
181
330
1F
100
AcDbEntity
  8
舞台
  6
Continuous
100
AcDbDimension
  2
*D15
 10
44553.17905640998
 20
21410.56247340102
 30
0.0
 11
44553.17905640998
 21
21260.56247340102
 31
0.0
 70
    33
  1
<>
 71
     5
 42
300.0
 73
     0
 74
     0
 75
     0
  3
標準寸法
100
AcDbAlignedDimension
 13
45053.17905640998
 23
21110.56247340102
 33
0.0
 14
45053.17905640998
 24
21410.56247340102
 34
0.0
1001
ACAD
1000
DSTYLE
1002
{
1070
   179
1070
     0
1070
   172
1070
     1
1002
}
  0
DIMENSION
  5
18C
330
1F
100
AcDbEntity
  8
舞台
  6
Continuous
100
AcDbDimension
  2
*D16
 10
44553.17905640998
 20
21810.56247340103
 30
0.0
 11
44553.17905640998
 21
21610.56247340103
 31
0.0
 70
    33
  1
<>
 71
     5
 42
400.0
 73
     0
 74
     0
 75
     0
  3
標準寸法
100
AcDbAlignedDimension
 13
45053.17905640997
 23
21410.56247340102
 33
0.0
 14
45053.17905640998
 24
21810.56247340102
 34
0.0
1001
ACAD
1000
DSTYLE
1002
{
1070
   179
1070
     0
1070
   172
1070
     1
1002
}
  0
DIMENSION
  5
197
330
1F
100
AcDbEntity
  8
舞台
  6
Continuous
100
AcDbDimension
  2
*D17
 10
44553.17905640998
 20
22410.56247340102
 30
0.0
 11
44553.17905640998
 21
22110.56247340102
 31
0.0
 70
    33
  1
<>
 71
     5
 42
600.0
 73
     0
 74
     0
 75
     0
  3
標準寸法
100
AcDbAlignedDimension
 13
45053.17905640998
 23
21810.56247340102
 33
0.0
 14
45053.17905640998
 24
22410.56247340102
 34
0.0
1001
ACAD
1000
DSTYLE
1002
{
1070
   179
1070
     0
1070
   172
1070
     1
1002
}
  0
DIMENSION
  5
1A2
330
1F
100
AcDbEntity
  8
舞台
  6
Continuous
100
AcDbDimension
  2
*D18
 10
44553.17905640998
 20
23360.56247340103
 30
0.0
 11
44553.17905640998
 21
23235.56247340103
 31
0.0
 70
    33
  1
<>
 71
     5
 42
250.0000000000036
 73
     0
 74
     0
 75
     0
  3
標準寸法
100
AcDbAlignedDimension
 13
45053.17905640997
 23
23110.56247340102
 33
0.0
 14
45053.17905640998
 24
23360.56247340102
 34
0.0
1001
ACAD
1000
DSTYLE
1002
{
1070
   179
1070
     0
1070
   172
1070
     1
1002
}
  0
TEXT
  5
1AD
330
1F
100
AcDbEntity
  8
舞台
  6
Continuous
100
AcDbText
 10
45274.814286434
 20
14736.86919231842
 30
0.0
 40
156.25
  1
引割幕１
  7
_TCW_TXTSTY_1
 11
45274.814286434
 21
14893.11919231842
 31
0.0
100
AcDbText
 73
     3
  0
TEXT
  5
1AE
330
1F
100
AcDbEntity
  8
舞台
  6
Continuous
100
AcDbText
 10
45279.8628348401
 20
15009.49080624744
 30
0.0
 40
156.25
  1
ＢＬ１
  7
_TCW_TXTSTY_1
 11
45279.8628348401
 21
15165.74080624744
 31
0.0
100
AcDbText
 73
     3
  0
TEXT
  5
1AF
330
1F
100
AcDbEntity
  8
舞台
  6
Continuous
100
AcDbText
 10
45278.59919608971
 20
15463.86034068721
 30
0.0
 40
156.25
  1
ＳＬ１
  7
_TCW_TXTSTY_1
 11
45278.59919608971
 21
15620.11034068721
 31
0.0
100
AcDbText
 73
     3
  0
TEXT
  5
1B0
330
1F
100
AcDbEntity
  8
舞台
  6
Continuous
100
AcDbText
 10
45278.5991960897
 20
15978.81227810869
 30
0.0
 40
156.25
  1
天反１
  7
_TCW_TXTSTY_1
 11
45278.5991960897
 21
16135.06227810869
 31
0.0
100
AcDbText
 73
     3
  0
TEXT
  5
1B1
330
1F
100
AcDbEntity
  8
舞台
  6
Continuous
100
AcDbText
 10
45278.5991960897
 20
16524.05550596674
 30
0.0
 40
156.25
  1
バトン１
  7
_TCW_TXTSTY_1
 11
45278.5991960897
 21
16680.30550596674
 31
0.0
100
AcDbText
 73
     3
  0
TEXT
  5
1B2
330
1F
100
AcDbEntity
  8
舞台
  6
Continuous
100
AcDbText
 10
45278.5991960897
 20
16837.0655071445
 30
0.0
 40
156.25
  1
袖幕１
  7
_TCW_TXTSTY_1
 11
45278.5991960897
 21
16993.3155071445
 31
0.0
100
AcDbText
 73
     3
  0
MTEXT
  5
1B3
330
1F
100
AcDbEntity
  8
舞台
  6
Continuous
100
AcDbMText
 10
45278.5991960897
 20
17542.40583181473
 30
0.0
 40
156.25
 41
0.0
 46
0.0
 71
     1
 72
     1
  1
{ＢＬ２\P（スクリーン）}
  7
_TCW_TXTSTY_1
 73
     1
 44
1.0
  0
TEXT
  5
1B4
330
1F
100
AcDbEntity
  8
舞台
  6
Continuous
100
AcDbText
 10
45278.5991960897
 20
17783.66833328693
 30
0.0
 40
156.25
  1
ＳＬ２
  7
_TCW_TXTSTY_1
 11
45278.5991960897
 21
17939.91833328693
 31
0.0
100
AcDbText
 73
     3
  0
TEXT
  5
1B5
330
1F
100
AcDbEntity
  8
舞台
  6
Continuous
100
AcDbText
 10
45278.5991960897
 20
18339.00865795716
 30
0.0
 40
156.25
  1
バトン２
  7
_TCW_TXTSTY_1
 11
45278.5991960897
 21
18495.25865795716
 31
0.0
100
AcDbText
 73
     3
  0
TEXT
  5
1B6
330
1F
100
AcDbEntity
  8
舞台
  6
Continuous
100
AcDbText
 10
45273.55064768361
 20
18687.35849797757
 30
0.0
 40
156.25
  1
バトン３
  7
_TCW_TXTSTY_1
 11
45273.55064768361
 21
18843.60849797757
 31
0.0
100
AcDbText
 73
     3
  0
TEXT
  5
1B7
330
1F
100
AcDbEntity
  8
舞台
  6
Continuous
100
AcDbText
 10
45273.87001613229
 20
18997.21385723234
 30
0.0
 40
156.25
  1
引割幕２
  7
_TCW_TXTSTY_1
 11
45273.87001613229
 21
19153.46385723234
 31
0.0
100
AcDbText
 73
     3
  0
TEXT
  5
1B8
330
1F
100
AcDbEntity
  8
舞台
  6
Continuous
100
AcDbText
 10
45273.8700161323
 20
19984.20513058519
 30
0.0
 40
156.25
  1
天反２
  7
_TCW_TXTSTY_1
 11
45273.8700161323
 21
20140.45513058519
 31
0.0
100
AcDbText
 73
     3
  0
TEXT
  5
1B9
330
1F
100
AcDbEntity
  8
舞台
  6
Continuous
100
AcDbText
 10
45276.3942904887
 20
20532.18584342183
 30
0.0
 40
156.25
  1
バトン４
  7
_TCW_TXTSTY_1
 11
45276.3942904887
 21
20688.43584342183
 31
0.0
100
AcDbText
 73
     3
  0
TEXT
  5
1BA
330
1F
100
AcDbEntity
  8
舞台
  6
Continuous
100
AcDbText
 10
45276.3942904887
 20
21031.99216598925
 30
0.0
 40
156.25
  1
文字幕１
  7
_TCW_TXTSTY_1
 11
45276.3942904887
 21
21188.24216598925
 31
0.0
100
AcDbText
 73
     3
  0
TEXT
  5
1BB
330
1F
100
AcDbEntity
  8
舞台
  6
Continuous
100
AcDbText
 10
45276.39429048869
 20
21351.312872074
 30
0.0
 40
156.25
  1
袖幕２
  7
_TCW_TXTSTY_1
 11
45276.39429048869
 21
21507.562872074
 31
0.0
100
AcDbText
 73
     3
  0
TEXT
  5
1BC
330
1F
100
AcDbEntity
  8
舞台
  6
Continuous
100
AcDbText
 10
45276.3942904887
 20
21740.05112295977
 30
0.0
 40
156.25
  1
ＵＨ
  7
_TCW_TXTSTY_1
 11
45276.3942904887
 21
21896.30112295977
 31
0.0
100
AcDbText
 73
     3
  0
TEXT
  5
1BD
330
1F
100
AcDbEntity
  8
舞台
  6
Continuous
100
AcDbText
 10
45276.3942904887
 20
22340.82841978325
 30
0.0
 40
156.25
  1
正反
  7
_TCW_TXTSTY_1
 11
45276.3942904887
 21
22497.07841978325
 31
0.0
100
AcDbText
 73
     3
  0
TEXT
  5
1BE
330
1F
100
AcDbEntity
  8
舞台
  6
Continuous
100
AcDbText
 10
45273.87001613229
 20
22791.41139240085
 30
0.0
 40
156.25
  1
バトン５
  7
_TCW_TXTSTY_1
 11
45273.87001613229
 21
22947.66139240085
 31
0.0
100
AcDbText
 73
     3
  0
LINE
  5
1BF
330
1F
100
AcDbEntity
  8
バトン寸法
370
     0
100
AcDbLine
 10
43553.17905640998
 20
22860.56247340102
 30
0.0
 11
45053.17905640998
 21
22860.56247340102
 31
0.0
  0
DIMENSION
  5
1C0
330
1F
100
AcDbEntity
  8
舞台
  6
Continuous
100
AcDbDimension
  2
*D19
 10
44553.17905640998
 20
22410.56247340102
 30
0.0
 11
44553.17905640998
 21
22635.56247340102
 31
0.0
 70
    33
  1
<>
 71
     5
 42
450.0
 73
     0
 74
     0
 75
     0
  3
標準寸法
100
AcDbAlignedDimension
 13
45053.17905640998
 23
22860.56247340102
 33
0.0
 14
45053.17905640998
 24
22410.56247340102
 34
0.0
1001
ACAD
1000
DSTYLE
1002
{
1070
   179
1070
     0
1070
   172
1070
     1
1002
}
  0
DIMENSION
  5
1CB
330
1F
100
AcDbEntity
  8
舞台
  6
Continuous
100
AcDbDimension
  2
*D20
 10
44553.17905640998
 20
23110.56247340102
 30
0.0
 11
44553.17905640998
 21
22985.56247340102
 31
0.0
 70
    33
  1
<>
 71
     5
 42
250.0
 73
     0
 74
     0
 75
     0
  3
標準寸法
100
AcDbAlignedDimension
 13
45053.17905640998
 23
22860.56247340102
 33
0.0
 14
45053.17905640998
 24
23110.56247340102
 34
0.0
1001
ACAD
1000
DSTYLE
1002
{
1070
   179
1070
     0
1070
   172
1070
     1
1002
}
  0
TEXT
  5
1D6
330
1F
100
AcDbEntity
  8
舞台
  6
Continuous
100
AcDbText
 10
45276.64566140483
 20
23036.26599960435
 30
0.0
 40
156.25
  1
バトン６
  7
_TCW_TXTSTY_1
 11
45276.64566140483
 21
23192.51599960435
 31
0.0
100
AcDbText
 73
     3
  0
TEXT
  5
1D7
330
1F
100
AcDbEntity
  8
舞台
  6
Continuous
100
AcDbText
 10
45276.64575571795
 20
23286.16918450468
 30
0.0
 40
156.25
  1
大黒幕
  7
_TCW_TXTSTY_1
 11
45276.64575571795
 21
23442.41918450468
 31
0.0
100
AcDbText
 73
     3
  0
TEXT
  5
1D8
330
1F
100
AcDbEntity
  8
舞台
  6
Continuous
100
AcDbText
 10
45276.64575571795
 20
23538.5966201448
 30
0.0
 40
156.25
  1
ホリゾント幕
  7
_TCW_TXTSTY_1
 11
45276.64575571795
 21
23694.8466201448
 31
0.0
100
AcDbText
 73
     3
  0
TEXT
  5
1D9
330
1F
100
AcDbEntity
  8
舞台
  6
Continuous
100
AcDbText
 10
30498.83611754811
 20
28384.6420530969
 30
0.0
 40
192.96875
  1
間口14m　奥行13m　高さ6.5m
  7
_TCW_TXTSTY_1
 11
30498.83611754811
 21
28577.6108030969
 31
0.0
100
AcDbText
 73
     3
  0
TEXT
  5
1DA
330
1F
100
AcDbEntity
  8
舞台
  6
Continuous
100
AcDbText
 10
30519.38299254811
 20
28073.2768187219
 30
0.0
 40
192.96875
  1
縮尺は、A3版にて1/100
  7
_TCW_TXTSTY_1
 11
30519.38299254811
 21
28266.2455687219
 31
0.0
100
AcDbText
 73
     3
  0
LWPOLYLINE
  5
1DB
330
1F
100
AcDbEntity
  8
舞台
  6
Continuous
 62
     7
370
     0
100
AcDbPolyline
 90
        4
 70
   129
 43
0.0
 10
29185.89275817311
 20
28995.8354124719
 10
24872.44549254811
 20
28995.8354124719
 10
24872.44549254811
 20
27848.4174437219
 10
29185.89275817311
 20
27848.4174437219
  0
LWPOLYLINE
  5
1DC
330
1F
100
AcDbEntity
  8
舞台
  6
Continuous
 62
     7
370
     0
100
AcDbPolyline
 90
        4
 70
   129
 43
0.0
 10
29129.17010192311
 20
28938.4643187219
 10
24929.16814879811
 20
28938.4643187219
 10
24929.16814879811
 20
27905.7885374719
 10
29129.17010192311
 20
27905.7885374719
  0
TEXT
  5
1DD
330
1F
100
AcDbEntity
  8
舞台
  6
Continuous
 62
     7
100
AcDbText
 10
25277.62127379811
 20
28244.7436155969
 30
0.0
 40
385.9375
  1
大ホール平面図
  7
_TCW_TXTSTY_1
 11
25277.62127379811
 21
28630.6811155969
 31
0.0
100
AcDbText
 73
     3
  0
LWPOLYLINE
  5
1DE
330
1F
100
AcDbEntity
  8
舞台
  6
Continuous
370
     0
100
AcDbPolyline
 90
        4
 70
   129
 43
0.0
 10
18389.11542477181
 20
29126.6158542764
 10
20207.11542477181
 20
29126.6158542764
 10
20207.11542477181
 20
27308.6158542764
 10
18389.11542477181
 20
27308.6158542764
  0
TEXT
  5
1DF
330
1F
100
AcDbEntity
  8
舞台
  6
Continuous
100
AcDbText
 10
18967.15839163669
 20
29384.87366063876
 30
0.0
 40
165.625
  1
１間
  7
_TCW_TXTSTY_1
 11
18967.15839163669
 21
29550.49866063876
 31
0.0
100
AcDbText
 73
     3
  0
TEXT
  5
1E0
330
1F
100
AcDbEntity
  8
舞台
  6
Continuous
100
AcDbText
 10
20304.11737601169
 20
28174.38733251376
 30
0.0
 40
165.625
  1
１間
  7
_TCW_TXTSTY_1
 11
20304.11737601169
 21
28340.01233251376
 31
0.0
100
AcDbText
 73
     3
  0
LWPOLYLINE
  5
1E1
330
1F
100
AcDbEntity
  8
舞台
  6
Continuous
 62
     7
370
     0
100
AcDbPolyline
 90
        4
 70
   129
 43
0.0
 10
17390.12030569919
 20
29340.29748876376
 10
12122.09198538669
 20
29340.29748876376
 10
12122.09198538669
 20
27273.88147313876
 10
17390.12030569919
 20
27273.88147313876
  0
TEXT
  5
1E2
330
1F
100
AcDbEntity
  8
舞台
  6
Continuous
100
AcDbText
 10
12548.11054007419
 20
28087.07873876376
 30
0.0
 40
192.96875
  1
〒372-0104　群馬県伊勢崎市境木島818
  7
_TCW_TXTSTY_1
 11
12548.11054007419
 21
28280.04748876376
 31
0.0
100
AcDbText
 73
     3
  0
LWPOLYLINE
  5
1E3
330
1F
100
AcDbEntity
  8
舞台
  6
Continuous
 62
     7
370
     0
100
AcDbPolyline
 90
        4
 70
   129
 43
0.0
 10
17320.84491507419
 20
29236.97522313876
 10
12191.36737601169
 20
29236.97522313876
 10
12191.36737601169
 20
27377.20178563876
 10
17320.84491507419
 20
27377.20178563876
  0
MTEXT
  5
1E4
330
1F
100
AcDbEntity
  8
舞台
  6
Continuous
100
AcDbMText
 10
14767.70038382419
 20
27962.60998876376
 30
0.0
 40
192.96875
 41
0.0
 46
0.0
 71
     1
 72
     1
  1
{TEL.0270-76-2222\PFAX.0270-76-2277}
  7
_TCW_TXTSTY_1
 73
     1
 44
1.0
  0
TEXT
  5
1E5
330
1F
100
AcDbEntity
  8
舞台
  6
Continuous
 62
     7
100
AcDbText
 10
12491.18858984334
 20
28794.64123876376
 30
0.0
 40
273.4375
  1
伊勢崎市境総合文化センター
  7
_TCW_TXTSTY_1
 11
12491.18858984334
 21
29068.07873876376
 31
0.0
100
AcDbText
 73
     3
  0
TEXT
  5
1E6
330
1F
100
AcDbEntity
  8
舞台
  6
Continuous
100
AcDbText
 10
37447.39012972416
 20
29470.93845636932
 30
0.0
 40
165.625
  1
　　搬入口
  7
_TCW_TXTSTY_1
 11
37447.39012972416
 21
29636.56345636932
 31
0.0
100
AcDbText
 73
     3
  0
TEXT
  5
1E7
330
1F
100
AcDbEntity
  8
舞台
  6
Continuous
100
AcDbText
 10
46133.37007272926
 20
11467.29262769417
 30
0.0
 40
165.625
  1
ピアノ庫
  7
_TCW_TXTSTY_1
 11
46133.37007272926
 21
11632.91762769417
 31
0.0
100
AcDbText
 73
     3
  0
TEXT
  5
1E8
330
1F
100
AcDbEntity
  8
舞台
  6
Continuous
100
AcDbText
 10
12628.63431201165
 20
10540.18626064202
 30
0.0
 40
165.625
  1
楽屋
  7
_TCW_TXTSTY_1
 11
12628.63431201165
 21
10705.81126064202
 31
0.0
100
AcDbText
 73
     3
  0
LINE
  5
1E9
330
1F
100
AcDbEntity
  8
舞台
370
     0
100
AcDbLine
 10
12843.15976917796
 20
10380.60474833926
 30
0.0
 11
12843.15976917796
 21
9750.60474833926
 31
0.0
  0
SOLID
  5
1EA
330
1F
100
AcDbEntity
  8
舞台
100
AcDbTrace
 10
12717.15976917796
 20
9876.60474833926
 30
0.0
 11
12843.15976917796
 21
9750.60474833926
 31
0.0
 12
12717.15976917796
 22
9876.60474833926
 32
0.0
 13
12969.15976917796
 23
9876.60474833926
 33
0.0
  0
TEXT
  5
1EB
330
1F
100
AcDbEntity
  8
舞台
  6
Continuous
100
AcDbText
 10
12626.11340087638
 20
16241.25454809368
 30
0.0
 40
165.625
  1
綱元
  7
_TCW_TXTSTY_1
 11
12626.11340087638
 21
16406.87954809368
 31
0.0
100
AcDbText
 73
     3
  0
TEXT
  5
1EC
330
1F
100
AcDbEntity
  8
舞台
  6
Continuous
100
AcDbText
 10
43820.07093124157
 20
27399.58791633927
 30
0.0
 40
165.625
  1
舞台倉庫
  7
_TCW_TXTSTY_1
 11
43820.07093124157
 21
27565.21291633927
 31
0.0
100
AcDbText
 73
     3
  0
LWPOLYLINE
  5
1ED
330
1F
100
AcDbEntity
  8
舞台
370
     0
100
AcDbPolyline
 90
        4
 70
   129
 43
0.0
 10
17021.0051282291
 20
14240.59542514741
 10
18231.0051282291
 20
14240.59542514741
 10
18231.0051282291
 20
13640.59542514741
 10
17021.0051282291
 20
13640.59542514741
  0
LINE
  5
1EE
330
1F
100
AcDbEntity
  8
舞台
370
     0
100
AcDbLine
 10
17021.0051282291
 20
14240.59542514741
 30
0.0
 11
18231.0051282291
 21
13640.59542514741
 31
0.0
  0
LINE
  5
1EF
330
1F
100
AcDbEntity
  8
舞台
370
     0
100
AcDbLine
 10
18231.0051282291
 20
14240.59542514741
 30
0.0
 11
17021.0051282291
 21
13640.59542514741
 31
0.0
  0
TEXT
  5
1F0
330
1F
100
AcDbEntity
  8
舞台
  6
Continuous
100
AcDbText
 10
17339.1691907291
 20
14374.81417514741
 30
0.0
 40
165.625
  1
操作盤
  7
_TCW_TXTSTY_1
 11
17339.1691907291
 21
14540.43917514741
 31
0.0
100
AcDbText
 73
     3
  0
LWPOLYLINE
  5
1F1
102
{ACAD_REACTORS
330
1F4
102
}
330
1F
100
AcDbEntity
  8
舞台
370
     0
100
AcDbPolyline
 90
        4
 70
   129
 43
0.0
 10
37489.26162509306
 20
21381.02079727005
 10
37749.26162509306
 20
21381.02079727005
 10
37749.26162509306
 20
21626.02079727005
 10
37489.26162509306
 20
21626.02079727005
  0
LINE
  5
1F2
102
{ACAD_REACTORS
330
1F4
102
}
330
1F
100
AcDbEntity
  8
舞台
370
     0
100
AcDbLine
 10
37489.26162509306
 20
21463.02079727005
 30
0.0
 11
37749.26162509306
 21
21463.02079727005
 31
0.0
  0
LINE
  5
1F3
102
{ACAD_REACTORS
330
1F4
102
}
330
1F
100
AcDbEntity
  8
舞台
370
     0
100
AcDbLine
 10
37489.26162509306
 20
21544.02079727005
 30
0.0
 11
37749.26162509306
 21
21544.02079727005
 31
0.0
  0
LWPOLYLINE
  5
1F7
330
1F
100
AcDbEntity
  8
舞台
370
     0
100
AcDbPolyline
 90
        4
 70
   129
 43
0.0
 10
37785.65651998622
 20
17751.78563456823
 10
37585.65651998622
 20
17751.78563456823
 10
37585.65651998622
 20
17951.78563456823
 10
37785.65651998622
 20
17951.78563456823
  0
LINE
  5
1F8
330
1F
100
AcDbEntity
  8
舞台
370
     0
100
AcDbLine
 10
37785.65651998622
 20
17851.78563456823
 30
0.0
 11
37585.65651998622
 21
17851.78563456823
 31
0.0
  0
LWPOLYLINE
  5
1F9
102
{ACAD_REACTORS
330
1FC
102
}
330
1F
100
AcDbEntity
  8
舞台
370
     0
100
AcDbPolyline
 90
        4
 70
   129
 43
0.0
 10
37480.96234010631
 20
14816.19511523639
 10
37740.96234010631
 20
14816.19511523639
 10
37740.96234010631
 20
15061.19511523639
 10
37480.96234010631
 20
15061.19511523639
  0
LINE
  5
1FA
102
{ACAD_REACTORS
330
1FC
102
}
330
1F
100
AcDbEntity
  8
舞台
370
     0
100
AcDbLine
 10
37480.96234010631
 20
14898.19511523639
 30
0.0
 11
37740.96234010631
 21
14898.19511523639
 31
0.0
  0
LINE
  5
1FB
102
{ACAD_REACTORS
330
1FC
102
}
330
1F
100
AcDbEntity
  8
舞台
370
     0
100
AcDbLine
 10
37480.96234010631
 20
14979.19511523639
 30
0.0
 11
37740.96234010631
 21
14979.19511523639
 31
0.0
  0
LWPOLYLINE
  5
1FF
102
{ACAD_REACTORS
330
202
102
}
330
1F
100
AcDbEntity
  8
舞台
370
     0
100
AcDbPolyline
 90
        4
 70
   129
 43
0.0
 10
33753.01850119128
 20
11809.62492488338
 10
33753.01850119128
 20
11549.62492488338
 10
33998.01850119128
 20
11549.62492488338
 10
33998.01850119128
 20
11809.62492488338
  0
LINE
  5
200
102
{ACAD_REACTORS
330
202
102
}
330
1F
100
AcDbEntity
  8
舞台
370
     0
100
AcDbLine
 10
33835.01850119128
 20
11809.62492488338
 30
0.0
 11
33835.01850119128
 21
11549.62492488338
 31
0.0
  0
LINE
  5
201
102
{ACAD_REACTORS
330
202
102
}
330
1F
100
AcDbEntity
  8
舞台
370
     0
100
AcDbLine
 10
33916.01850119128
 20
11809.62492488338
 30
0.0
 11
33916.01850119128
 21
11549.62492488338
 31
0.0
  0
LWPOLYLINE
  5
205
330
1F
100
AcDbEntity
  8
舞台
370
     0
100
AcDbPolyline
 90
        4
 70
   129
 43
0.0
 10
36830.5113468427
 20
7479.7212716701
 10
36630.5113468427
 20
7479.7212716701
 10
36630.5113468427
 20
7679.7212716701
 10
36830.5113468427
 20
7679.7212716701
  0
LINE
  5
206
330
1F
100
AcDbEntity
  8
舞台
370
     0
100
AcDbLine
 10
36830.5113468427
 20
7579.7212716701
 30
0.0
 11
36630.5113468427
 21
7579.7212716701
 31
0.0
  0
LWPOLYLINE
  5
207
102
{ACAD_REACTORS
330
20B
102
}
330
1F
100
AcDbEntity
  8
舞台
370
     0
100
AcDbPolyline
 90
        4
 70
   129
 43
0.0
 10
33885.279980708
 20
24218.6569023979
 10
33885.279980708
 20
24478.6569023979
 10
34185.279980708
 20
24478.6569023979
 10
34185.279980708
 20
24218.6569023979
  0
LINE
  5
208
102
{ACAD_REACTORS
330
20B
102
}
330
1F
100
AcDbEntity
  8
舞台
370
     0
100
AcDbLine
 10
33960.279980708
 20
24218.6569023979
 30
0.0
 11
33960.279980708
 21
24478.6569023979
 31
0.0
  0
LINE
  5
209
102
{ACAD_REACTORS
330
20B
102
}
330
1F
100
AcDbEntity
  8
舞台
370
     0
100
AcDbLine
 10
34035.279980708
 20
24218.6569023979
 30
0.0
 11
34035.279980708
 21
24478.6569023979
 31
0.0
  0
LINE
  5
20A
102
{ACAD_REACTORS
330
20B
102
}
330
1F
100
AcDbEntity
  8
舞台
370
     0
100
AcDbLine
 10
34110.279980708
 20
24218.6569023979
 30
0.0
 11
34110.279980708
 21
24478.6569023979
 31
0.0
  0
LWPOLYLINE
  5
20E
102
{ACAD_REACTORS
330
211
102
}
330
1F
100
AcDbEntity
  8
舞台
370
     0
100
AcDbPolyline
 90
        4
 70
   129
 43
0.0
 10
38301.80428757559
 20
13948.27602538712
 10
38301.80428757559
 20
13688.27602538712
 10
38546.80428757559
 20
13688.27602538712
 10
38546.80428757559
 20
13948.27602538712
  0
LINE
  5
20F
102
{ACAD_REACTORS
330
211
102
}
330
1F
100
AcDbEntity
  8
舞台
370
     0
100
AcDbLine
 10
38383.80428757559
 20
13948.27602538712
 30
0.0
 11
38383.80428757559
 21
13688.27602538712
 31
0.0
  0
LINE
  5
210
102
{ACAD_REACTORS
330
211
102
}
330
1F
100
AcDbEntity
  8
舞台
370
     0
100
AcDbLine
 10
38464.80428757559
 20
13948.27602538712
 30
0.0
 11
38464.80428757559
 21
13688.27602538712
 31
0.0
  0
LWPOLYLINE
  5
214
102
{ACAD_REACTORS
330
217
102
}
330
1F
100
AcDbEntity
  8
舞台
370
     0
100
AcDbPolyline
 90
        4
 70
   129
 43
0.0
 10
20371.79719486699
 20
21381.02079727006
 10
20111.79719486699
 20
21381.02079727006
 10
20111.79719486699
 20
21626.02079727006
 10
20371.79719486699
 20
21626.02079727006
  0
LINE
  5
215
102
{ACAD_REACTORS
330
217
102
}
330
1F
100
AcDbEntity
  8
舞台
370
     0
100
AcDbLine
 10
20371.79719486699
 20
21463.02079727006
 30
0.0
 11
20111.79719486699
 21
21463.02079727006
 31
0.0
  0
LINE
  5
216
102
{ACAD_REACTORS
330
217
102
}
330
1F
100
AcDbEntity
  8
舞台
370
     0
100
AcDbLine
 10
20371.79719486699
 20
21544.02079727006
 30
0.0
 11
20111.79719486699
 21
21544.02079727006
 31
0.0
  0
LWPOLYLINE
  5
21A
330
1F
100
AcDbEntity
  8
舞台
370
     0
100
AcDbPolyline
 90
        4
 70
   129
 43
0.0
 10
20075.40229997384
 20
17751.78563456824
 10
20275.40229997384
 20
17751.78563456824
 10
20275.40229997384
 20
17951.78563456824
 10
20075.40229997384
 20
17951.78563456824
  0
LWPOLYLINE
  5
21B
102
{ACAD_REACTORS
330
21E
102
}
330
1F
100
AcDbEntity
  8
舞台
370
     0
100
AcDbPolyline
 90
        4
 70
   129
 43
0.0
 10
20380.09647985375
 20
14816.19511523639
 10
20120.09647985375
 20
14816.19511523639
 10
20120.09647985375
 20
15061.19511523639
 10
20380.09647985375
 20
15061.19511523639
  0
LINE
  5
21C
102
{ACAD_REACTORS
330
21E
102
}
330
1F
100
AcDbEntity
  8
舞台
370
     0
100
AcDbLine
 10
20380.09647985375
 20
14898.19511523639
 30
0.0
 11
20120.09647985375
 21
14898.19511523639
 31
0.0
  0
LINE
  5
21D
102
{ACAD_REACTORS
330
21E
102
}
330
1F
100
AcDbEntity
  8
舞台
370
     0
100
AcDbLine
 10
20380.09647985375
 20
14979.19511523639
 30
0.0
 11
20120.09647985375
 21
14979.19511523639
 31
0.0
  0
LWPOLYLINE
  5
221
102
{ACAD_REACTORS
330
224
102
}
330
1F
100
AcDbEntity
  8
舞台
370
     0
100
AcDbPolyline
 90
        4
 70
   129
 43
0.0
 10
24108.04031876878
 20
11809.62492488338
 10
24108.04031876878
 20
11549.62492488338
 10
23863.04031876878
 20
11549.62492488338
 10
23863.04031876878
 20
11809.62492488338
  0
LINE
  5
222
102
{ACAD_REACTORS
330
224
102
}
330
1F
100
AcDbEntity
  8
舞台
370
     0
100
AcDbLine
 10
24026.04031876878
 20
11809.62492488338
 30
0.0
 11
24026.04031876878
 21
11549.62492488338
 31
0.0
  0
LINE
  5
223
102
{ACAD_REACTORS
330
224
102
}
330
1F
100
AcDbEntity
  8
舞台
370
     0
100
AcDbLine
 10
23945.04031876878
 20
11809.62492488338
 30
0.0
 11
23945.04031876878
 21
11549.62492488338
 31
0.0
  0
LWPOLYLINE
  5
227
330
1F
100
AcDbEntity
  8
舞台
370
     0
100
AcDbPolyline
 90
        4
 70
   129
 43
0.0
 10
21030.54747311735
 20
7479.721271670104
 10
21230.54747311735
 20
7479.721271670104
 10
21230.54747311735
 20
7679.721271670104
 10
21030.54747311735
 20
7679.721271670104
  0
LWPOLYLINE
  5
228
102
{ACAD_REACTORS
330
22C
102
}
330
1F
100
AcDbEntity
  8
舞台
370
     0
100
AcDbPolyline
 90
        4
 70
   129
 43
0.0
 10
23975.77883925205
 20
24218.65690239791
 10
23975.77883925205
 20
24478.65690239791
 10
23675.77883925205
 20
24478.65690239791
 10
23675.77883925205
 20
24218.65690239791
  0
LINE
  5
229
102
{ACAD_REACTORS
330
22C
102
}
330
1F
100
AcDbEntity
  8
舞台
370
     0
100
AcDbLine
 10
23900.77883925205
 20
24218.65690239791
 30
0.0
 11
23900.77883925205
 21
24478.65690239791
 31
0.0
  0
LINE
  5
22A
102
{ACAD_REACTORS
330
22C
102
}
330
1F
100
AcDbEntity
  8
舞台
370
     0
100
AcDbLine
 10
23825.77883925205
 20
24218.65690239791
 30
0.0
 11
23825.77883925205
 21
24478.65690239791
 31
0.0
  0
LINE
  5
22B
102
{ACAD_REACTORS
330
22C
102
}
330
1F
100
AcDbEntity
  8
舞台
370
     0
100
AcDbLine
 10
23750.77883925205
 20
24218.65690239791
 30
0.0
 11
23750.77883925205
 21
24478.65690239791
 31
0.0
  0
LWPOLYLINE
  5
22F
102
{ACAD_REACTORS
330
232
102
}
330
1F
100
AcDbEntity
  8
舞台
370
     0
100
AcDbPolyline
 90
        4
 70
   129
 43
0.0
 10
19559.25453238447
 20
13948.27602538712
 10
19559.25453238447
 20
13688.27602538712
 10
19314.25453238447
 20
13688.27602538712
 10
19314.25453238447
 20
13948.27602538712
  0
LINE
  5
230
102
{ACAD_REACTORS
330
232
102
}
330
1F
100
AcDbEntity
  8
舞台
370
     0
100
AcDbLine
 10
19477.25453238447
 20
13948.27602538712
 30
0.0
 11
19477.25453238447
 21
13688.27602538712
 31
0.0
  0
LINE
  5
231
102
{ACAD_REACTORS
330
232
102
}
330
1F
100
AcDbEntity
  8
舞台
370
     0
100
AcDbLine
 10
19396.25453238447
 20
13948.27602538712
 30
0.0
 11
19396.25453238447
 21
13688.27602538712
 31
0.0
  0
TEXT
  5
235
330
1F
100
AcDbEntity
  8
舞台
  6
Continuous
100
AcDbText
 10
33921.69723032286
 20
23976.08584853684
 30
0.0
 40
165.625
  1
LH
  7
_TCW_TXTSTY_1
 11
33921.69723032286
 21
24141.71084853684
 31
0.0
100
AcDbText
 73
     3
  0
TEXT
  5
236
330
1F
100
AcDbEntity
  8
舞台
  6
Continuous
100
AcDbText
 10
23706.17152478104
 20
23980.23570802277
 30
0.0
 40
165.625
  1
LH
  7
_TCW_TXTSTY_1
 11
23706.17152478104
 21
24145.86070802277
 31
0.0
100
AcDbText
 73
     3
  0
LINE
  5
237
330
1F
100
AcDbEntity
  8
舞台
370
     0
100
AcDbLine
 10
20275.40229997384
 20
17851.78486919723
 30
0.0
 11
20075.40229997384
 21
17851.78486919723
 31
0.0
  0
LINE
  5
238
330
1F
100
AcDbEntity
  8
舞台
370
     0
100
AcDbLine
 10
21230.54747311735
 20
7589.577128835265
 30
0.0
 11
21030.54747311735
 21
7589.577128835265
 31
0.0
  0
TEXT
  5
239
330
1F
100
AcDbEntity
  8
舞台
  6
Continuous
100
AcDbText
 10
37579.65874669504
 20
18104.26024688881
 30
0.0
 40
165.625
  1
直
  7
_TCW_TXTSTY_1
 11
37579.65874669504
 21
18269.88524688881
 31
0.0
100
AcDbText
 73
     3
  0
TEXT
  5
23A
330
1F
100
AcDbEntity
  8
舞台
  6
Continuous
100
AcDbText
 10
20065.8462352076
 20
18071.06208759431
 30
0.0
 40
165.625
  1
直
  7
_TCW_TXTSTY_1
 11
20065.8462352076
 21
18236.68708759431
 31
0.0
100
AcDbText
 73
     3
  0
LWPOLYLINE
  5
23B
102
{ACAD_REACTORS
330
23F
102
}
330
1F
100
AcDbEntity
  8
舞台
370
     0
100
AcDbPolyline
 90
        4
 70
   129
 43
0.0
 10
29770.95787550308
 20
9665.727186651733
 10
29510.95787550308
 20
9665.727186651733
 10
29510.95787550308
 20
9965.727186651733
 10
29770.95787550308
 20
9965.727186651733
  0
LINE
  5
23C
102
{ACAD_REACTORS
330
23F
102
}
330
1F
100
AcDbEntity
  8
舞台
370
     0
100
AcDbLine
 10
29770.95787550308
 20
9740.727186651733
 30
0.0
 11
29510.95787550308
 21
9740.727186651733
 31
0.0
  0
LINE
  5
23D
102
{ACAD_REACTORS
330
23F
102
}
330
1F
100
AcDbEntity
  8
舞台
370
     0
100
AcDbLine
 10
29770.95787550308
 20
9815.727186651733
 30
0.0
 11
29510.95787550308
 21
9815.727186651733
 31
0.0
  0
LINE
  5
23E
102
{ACAD_REACTORS
330
23F
102
}
330
1F
100
AcDbEntity
  8
舞台
370
     0
100
AcDbLine
 10
29770.95787550308
 20
9890.727186651733
 30
0.0
 11
29510.95787550308
 21
9890.727186651733
 31
0.0
  0
CIRCLE
  5
242
330
1F
100
AcDbEntity
  8
舞台
370
     0
100
AcDbCircle
 10
26436.59429048681
 20
9848.191095061236
 30
0.0
 40
120.0
  0
TEXT
  5
243
330
1F
100
AcDbEntity
  8
舞台
  6
Continuous
100
AcDbText
 10
26743.51170179673
 20
9771.112142474689
 30
0.0
 40
165.625
  1
マイク
  7
_TCW_TXTSTY_1
 11
26743.51170179673
 21
9936.737142474689
 31
0.0
100
AcDbText
 73
     3
  0
CIRCLE
  5
244
330
1F
100
AcDbEntity
  8
舞台
370
     0
100
AcDbCircle
 10
26420.90135797289
 20
9139.574564159104
 30
0.0
 40
120.0
  0
TEXT
  5
245
330
1F
100
AcDbEntity
  8
舞台
  6
Continuous
100
AcDbText
 10
26734.06834242173
 20
9081.852376849689
 30
0.0
 40
165.625
  1
エレベーターマイク
  7
_TCW_TXTSTY_1
 11
26734.06834242173
 21
9247.477376849689
 31
0.0
100
AcDbText
 73
     3
  0
CIRCLE
  5
246
102
{ACAD_REACTORS
330
248
102
}
330
1F
100
AcDbEntity
  8
舞台
370
     0
100
AcDbCircle
 10
26429.60333392663
 20
9498.682772085383
 30
0.0
 40
120.0
  0
CIRCLE
  5
247
102
{ACAD_REACTORS
330
248
102
}
330
1F
100
AcDbEntity
  8
舞台
370
     0
100
AcDbCircle
 10
26429.60333392663
 20
9498.682186147886
 30
0.0
 40
72.0
  0
TEXT
  5
24B
330
1F
100
AcDbEntity
  8
舞台
  6
Continuous
100
AcDbText
 10
26731.73435804673
 20
8757.618978412189
 30
0.0
 40
165.625
  1
マルチコネクター
  7
_TCW_TXTSTY_1
 11
26731.73435804673
 21
8923.243978412189
 31
0.0
100
AcDbText
 73
     3
  0
CIRCLE
  5
24C
102
{ACAD_REACTORS
330
251
102
}
330
1F
100
AcDbEntity
  8
舞台
370
     0
100
AcDbCircle
 10
26429.60333392663
 20
8841.607212600227
 30
0.0
 40
120.0
  0
LINE
  5
24D
102
{ACAD_REACTORS
330
251
102
}
330
1F
100
AcDbEntity
  8
舞台
370
     0
100
AcDbLine
 10
26379.00411517662
 20
8774.408384475228
 30
0.0
 11
26379.00411517662
 21
8924.924595412727
 31
0.0
  0
LINE
  5
24E
102
{ACAD_REACTORS
330
251
102
}
330
1F
100
AcDbEntity
  8
舞台
370
     0
100
AcDbLine
 10
26481.98849017662
 20
8774.408384475228
 30
0.0
 11
26481.98849017662
 21
8924.924595412727
 31
0.0
  0
LINE
  5
24F
102
{ACAD_REACTORS
330
251
102
}
330
1F
100
AcDbEntity
  8
舞台
370
     0
100
AcDbLine
 10
26481.98849017662
 20
8924.924595412727
 30
0.0
 11
26430.49630267662
 21
8849.666782912727
 31
0.0
  0
LINE
  5
250
102
{ACAD_REACTORS
330
251
102
}
330
1F
100
AcDbEntity
  8
舞台
370
     0
100
AcDbLine
 10
26379.00411517662
 20
8924.924595412727
 30
0.0
 11
26430.49630267662
 21
8849.666782912727
 31
0.0
  0
LWPOLYLINE
  5
254
330
1F
100
AcDbEntity
  8
舞台
370
     0
100
AcDbPolyline
 90
        4
 70
   129
 43
0.0
 10
29737.73326612808
 20
9325.830213995483
 10
29537.73326612808
 20
9325.830213995483
 10
29537.73326612808
 20
9525.830213995483
 10
29737.73326612808
 20
9525.830213995483
  0
LINE
  5
255
330
1F
100
AcDbEntity
  8
舞台
370
     0
100
AcDbLine
 10
29737.73326612808
 20
9425.830213995483
 30
0.0
 11
29537.73326612808
 21
9425.830213995483
 31
0.0
  0
TEXT
  5
256
330
1F
100
AcDbEntity
  8
舞台
  6
Continuous
100
AcDbText
 10
29999.62193800308
 20
9493.974745245483
 30
0.0
 40
165.625
  1
照明用コンセント
  7
_TCW_TXTSTY_1
 11
29999.62193800308
 21
9659.599745245483
 31
0.0
100
AcDbText
 73
     3
  0
TEXT
  5
257
330
1F
100
AcDbEntity
  8
舞台
  6
Continuous
100
AcDbText
 10
26735.30076429673
 20
9402.231771380939
 30
0.0
 40
165.625
  1
スピーカー
  7
_TCW_TXTSTY_1
 11
26735.30076429673
 21
9567.856771380939
 31
0.0
100
AcDbText
 73
     3
  0
TEXT
  5
258
330
1F
100
AcDbEntity
  8
舞台
  6
Continuous
100
AcDbText
 10
26340.22831544622
 20
9069.194249412467
 30
0.0
 40
137.5
  1
EM
  7
_TCW_TXTSTY_1
 72
     1
 11
26429.60331544622
 21
9137.944249412467
 31
0.0
100
AcDbText
 73
     2
  0
CIRCLE
  5
259
330
1F
100
AcDbEntity
  8
舞台
370
     0
100
AcDbCircle
 10
28921.48955304352
 20
14863.9993582329
 30
0.0
 40
120.0
  0
CIRCLE
  5
25A
330
1F
100
AcDbEntity
  8
舞台
370
     0
100
AcDbCircle
 10
18530.64096439716
 20
12971.73619672223
 30
0.0
 40
120.0
  0
CIRCLE
  5
25B
330
1F
100
AcDbEntity
  8
舞台
370
     0
100
AcDbCircle
 10
39245.94294304038
 20
13038.13139537173
 30
0.0
 40
120.0
  0
CIRCLE
  5
25C
330
1F
100
AcDbEntity
  8
舞台
370
     0
100
AcDbCircle
 10
22547.55048269176
 20
10946.68263791255
 30
0.0
 40
120.0
  0
CIRCLE
  5
25D
330
1F
100
AcDbEntity
  8
舞台
370
     0
100
AcDbCircle
 10
35162.63822609629
 20
11079.47303521155
 30
0.0
 40
120.0
  0
CIRCLE
  5
25E
330
1F
100
AcDbEntity
  8
舞台
370
     0
100
AcDbCircle
 10
28929.78896782517
 20
12191.59350566139
 30
0.0
 40
120.0
  0
TEXT
  5
25F
330
1F
100
AcDbEntity
  8
舞台
  6
Continuous
100
AcDbText
 10
28849.1159252985
 20
12121.21319091475
 30
0.0
 40
137.5
  1
EM
  7
_TCW_TXTSTY_1
 72
     1
 11
28938.4909252985
 21
12189.96319091475
 31
0.0
100
AcDbText
 73
     2
  0
CIRCLE
  5
260
102
{ACAD_REACTORS
330
265
102
}
330
1F
100
AcDbEntity
  8
舞台
370
     0
100
AcDbCircle
 10
18455.94719329744
 20
13768.47946982488
 30
0.0
 40
120.0
  0
LINE
  5
261
102
{ACAD_REACTORS
330
265
102
}
330
1F
100
AcDbEntity
  8
舞台
370
     0
100
AcDbLine
 10
18405.34797454744
 20
13701.28064169988
 30
0.0
 11
18405.34797454744
 21
13851.79685263738
 31
0.0
  0
LINE
  5
262
102
{ACAD_REACTORS
330
265
102
}
330
1F
100
AcDbEntity
  8
舞台
370
     0
100
AcDbLine
 10
18508.33234954744
 20
13701.28064169988
 30
0.0
 11
18508.33234954744
 21
13851.79685263738
 31
0.0
  0
LINE
  5
263
102
{ACAD_REACTORS
330
265
102
}
330
1F
100
AcDbEntity
  8
舞台
370
     0
100
AcDbLine
 10
18508.33234954744
 20
13851.79685263738
 30
0.0
 11
18456.84016204744
 21
13776.53904013738
 31
0.0
  0
LINE
  5
264
102
{ACAD_REACTORS
330
265
102
}
330
1F
100
AcDbEntity
  8
舞台
370
     0
100
AcDbLine
 10
18405.34797454744
 20
13851.79685263738
 30
0.0
 11
18456.84016204744
 21
13776.53904013738
 31
0.0
  0
CIRCLE
  5
268
102
{ACAD_REACTORS
330
26D
102
}
330
1F
100
AcDbEntity
  8
舞台
370
     0
100
AcDbCircle
 10
39351.76116550221
 20
13818.2761976044
 30
0.0
 40
120.0
  0
LINE
  5
269
102
{ACAD_REACTORS
330
26D
102
}
330
1F
100
AcDbEntity
  8
舞台
370
     0
100
AcDbLine
 10
39301.1619467522
 20
13751.0773694794
 30
0.0
 11
39301.1619467522
 21
13901.5935804169
 31
0.0
  0
LINE
  5
26A
102
{ACAD_REACTORS
330
26D
102
}
330
1F
100
AcDbEntity
  8
舞台
370
     0
100
AcDbLine
 10
39404.1463217522
 20
13751.0773694794
 30
0.0
 11
39404.1463217522
 21
13901.5935804169
 31
0.0
  0
LINE
  5
26B
102
{ACAD_REACTORS
330
26D
102
}
330
1F
100
AcDbEntity
  8
舞台
370
     0
100
AcDbLine
 10
39404.1463217522
 20
13901.5935804169
 30
0.0
 11
39352.6541342522
 21
13826.3357679169
 31
0.0
  0
LINE
  5
26C
102
{ACAD_REACTORS
330
26D
102
}
330
1F
100
AcDbEntity
  8
舞台
370
     0
100
AcDbLine
 10
39301.1619467522
 20
13901.5935804169
 30
0.0
 11
39352.6541342522
 21
13826.3357679169
 31
0.0
  0
CIRCLE
  5
270
330
1F
100
AcDbEntity
  8
舞台
370
     0
100
AcDbCircle
 10
20238.24277416072
 20
22007.85456840244
 30
0.0
 40
120.0
  0
CIRCLE
  5
271
102
{ACAD_REACTORS
330
273
102
}
330
1F
100
AcDbEntity
  8
舞台
370
     0
100
AcDbCircle
 10
20221.644194539
 20
22439.42408972356
 30
0.0
 40
120.0
  0
CIRCLE
  5
272
102
{ACAD_REACTORS
330
273
102
}
330
1F
100
AcDbEntity
  8
舞台
370
     0
100
AcDbCircle
 10
20221.644194539
 20
22439.42350378606
 30
0.0
 40
72.0
  0
CIRCLE
  5
276
330
1F
100
AcDbEntity
  8
舞台
370
     0
100
AcDbCircle
 10
37608.88608348076
 20
21991.25676983932
 30
0.0
 40
120.0
  0
CIRCLE
  5
277
102
{ACAD_REACTORS
330
279
102
}
330
1F
100
AcDbEntity
  8
舞台
370
     0
100
AcDbCircle
 10
37608.88722610306
 20
22422.82529006118
 30
0.0
 40
120.0
  0
CIRCLE
  5
278
102
{ACAD_REACTORS
330
279
102
}
330
1F
100
AcDbEntity
  8
舞台
370
     0
100
AcDbCircle
 10
37608.88722610306
 20
22422.82470412369
 30
0.0
 40
72.0
  0
CIRCLE
  5
27C
102
{ACAD_REACTORS
330
27E
102
}
330
1F
100
AcDbEntity
  8
舞台
370
     0
100
AcDbCircle
 10
37658.68362509019
 20
18621.70016737745
 30
0.0
 40
120.0
  0
CIRCLE
  5
27D
102
{ACAD_REACTORS
330
27E
102
}
330
1F
100
AcDbEntity
  8
舞台
370
     0
100
AcDbCircle
 10
37658.68362509019
 20
18621.69958143995
 30
0.0
 40
72.0
  0
CIRCLE
  5
281
102
{ACAD_REACTORS
330
283
102
}
330
1F
100
AcDbEntity
  8
舞台
370
     0
100
AcDbCircle
 10
20161.47344945616
 20
18538.70616906558
 30
0.0
 40
120.0
  0
CIRCLE
  5
282
102
{ACAD_REACTORS
330
283
102
}
330
1F
100
AcDbEntity
  8
舞台
370
     0
100
AcDbCircle
 10
20161.47344945616
 20
18538.70558312808
 30
0.0
 40
72.0
  0
CIRCLE
  5
286
102
{ACAD_REACTORS
330
288
102
}
330
1F
100
AcDbEntity
  8
舞台
370
     0
100
AcDbCircle
 10
19879.2938551958
 20
13799.7488654577
 30
0.0
 40
120.0
  0
CIRCLE
  5
287
102
{ACAD_REACTORS
330
288
102
}
330
1F
100
AcDbEntity
  8
舞台
370
     0
100
AcDbCircle
 10
19879.2938551958
 20
13799.7482795202
 30
0.0
 40
72.0
  0
CIRCLE
  5
28B
102
{ACAD_REACTORS
330
28D
102
}
330
1F
100
AcDbEntity
  8
舞台
370
     0
100
AcDbCircle
 10
38880.77027415583
 20
13834.87463591153
 30
0.0
 40
120.0
  0
CIRCLE
  5
28C
102
{ACAD_REACTORS
330
28D
102
}
330
1F
100
AcDbEntity
  8
舞台
370
     0
100
AcDbCircle
 10
38880.77027415583
 20
13834.87404997403
 30
0.0
 40
72.0
  0
CIRCLE
  5
290
102
{ACAD_REACTORS
330
292
102
}
330
1F
100
AcDbEntity
  8
舞台
370
     0
100
AcDbCircle
 10
28570.83915616353
 20
12179.14455208174
 30
0.0
 40
120.0
  0
CIRCLE
  5
291
102
{ACAD_REACTORS
330
292
102
}
330
1F
100
AcDbEntity
  8
舞台
370
     0
100
AcDbCircle
 10
28570.83915616353
 20
12179.14396614424
 30
0.0
 40
72.0
  0
LWPOLYLINE
  5
295
330
1F
100
AcDbEntity
  8
反射板
370
     0
100
AcDbPolyline
 90
        4
 70
   129
 43
0.0
 10
23930.52940998003
 20
22610.56247340101
 10
33930.52940998004
 20
22610.56247340101
 10
33930.52940998004
 20
22110.56247340102
 10
23930.52940998003
 20
22110.56247340102
  0
LINE
  5
296
330
1F
100
AcDbEntity
  8
反射板
370
     0
100
AcDbLine
 10
33430.52940998004
 20
21960.56247340102
 30
0.0
 11
33930.52940998004
 21
21960.56247340102
 31
0.0
  0
LINE
  5
297
330
1F
100
AcDbEntity
  8
反射板
370
     0
100
AcDbLine
 10
33930.52940998004
 20
21960.56247340102
 30
0.0
 11
35068.31829192882
 21
18360.56247340101
 31
0.0
  0
LINE
  5
298
330
1F
100
AcDbEntity
  8
反射板
370
     0
100
AcDbLine
 10
35068.31829192882
 20
18360.56247340101
 30
0.0
 11
34868.31829192882
 21
18360.56247340101
 31
0.0
  0
LINE
  5
299
330
1F
100
AcDbEntity
  8
反射板
370
     0
100
AcDbLine
 10
34868.31829192882
 20
18360.56247340101
 30
0.0
 11
34131.02909767523
 21
20060.56247340101
 31
0.0
  0
LINE
  5
29A
330
1F
100
AcDbEntity
  8
反射板
370
     0
100
AcDbLine
 10
34131.02909767523
 20
20060.56247340101
 30
0.0
 11
34131.02909767523
 21
20660.56247340101
 31
0.0
  0
LINE
  5
29B
330
1F
100
AcDbEntity
  8
反射板
370
     0
100
AcDbLine
 10
34131.02909767523
 20
20660.56247340101
 30
0.0
 11
33430.52940998004
 21
21960.56247340102
 31
0.0
  0
LINE
  5
29C
330
1F
100
AcDbEntity
  8
反射板
370
     0
100
AcDbLine
 10
35115.72616201002
 20
18210.56247340101
 30
0.0
 11
36460.52940998004
 21
13955.56247340102
 31
0.0
  0
LINE
  5
29D
330
1F
100
AcDbEntity
  8
反射板
370
     0
100
AcDbLine
 10
35108.69057512184
 20
18204.50819950354
 30
0.0
 11
34884.60677553921
 21
18204.50819950354
 31
0.0
  0
LINE
  5
29E
330
1F
100
AcDbEntity
  8
反射板
370
     0
100
AcDbLine
 10
36461.49267644879
 20
13955.21552657469
 30
0.0
 11
36060.52940998004
 21
13955.21552657469
 31
0.0
  0
LINE
  5
29F
330
1F
100
AcDbEntity
  8
反射板
370
     0
100
AcDbLine
 10
34868.31829192882
 20
18210.56247340101
 30
0.0
 11
34868.31829192882
 21
17610.56247340101
 31
0.0
  0
LINE
  5
2A0
330
1F
100
AcDbEntity
  8
反射板
370
     0
100
AcDbLine
 10
34868.31829192882
 20
17610.56247340101
 30
0.0
 11
35658.44945994881
 21
15860.56247340101
 31
0.0
  0
LINE
  5
2A1
330
1F
100
AcDbEntity
  8
反射板
370
     0
100
AcDbLine
 10
35658.44945994881
 20
15860.56247340101
 30
0.0
 11
35658.44945994881
 21
15260.56247340101
 31
0.0
  0
LINE
  5
2A2
330
1F
100
AcDbEntity
  8
反射板
370
     0
100
AcDbLine
 10
35658.44945994881
 20
15260.56247340101
 30
0.0
 11
36060.52940998004
 21
13955.21552657469
 31
0.0
  0
LINE
  5
2A3
330
1F
100
AcDbEntity
  8
反射板
370
     0
100
AcDbLine
 10
35783.19972665649
 20
14855.56247340102
 30
0.0
 11
36176.08218949284
 21
14855.56247340102
 31
0.0
  0
LWPOLYLINE
  5
2A4
330
1F
100
AcDbEntity
  8
反射板
370
     0
100
AcDbPolyline
 90
        4
 70
   129
 43
0.0
 10
36340.86584260475
 20
15787.92901498116
 10
36618.08865751071
 20
14887.92901498116
 10
36225.20619467436
 20
14887.92901498116
 10
35940.75897418717
 20
15788.2759618075
  0
ARC
  5
2A5
330
1F
100
AcDbEntity
  8
反射板
370
     0
100
AcDbCircle
 10
36400.69762629239
 20
14871.74574419109
 30
0.0
 40
918.1348637399863
100
AcDbArc
 50
273.7364224197241
 51
93.73642241972408
  0
LINE
  5
2A6
330
1F
100
AcDbEntity
  8
反射板
370
     0
100
AcDbLine
 10
24430.52940998003
 20
21960.56247340102
 30
0.0
 11
23930.52940998003
 21
21960.56247340102
 31
0.0
  0
LINE
  5
2A7
330
1F
100
AcDbEntity
  8
反射板
370
     0
100
AcDbLine
 10
23930.52940998003
 20
21960.56247340102
 30
0.0
 11
22792.74052803125
 21
18360.56247340102
 31
0.0
  0
LINE
  5
2A8
330
1F
100
AcDbEntity
  8
反射板
370
     0
100
AcDbLine
 10
22792.74052803125
 20
18360.56247340102
 30
0.0
 11
22992.74052803125
 21
18360.56247340102
 31
0.0
  0
LINE
  5
2A9
330
1F
100
AcDbEntity
  8
反射板
370
     0
100
AcDbLine
 10
22992.74052803125
 20
18360.56247340102
 30
0.0
 11
23730.02972228484
 21
20060.56247340102
 31
0.0
  0
LINE
  5
2AA
330
1F
100
AcDbEntity
  8
反射板
370
     0
100
AcDbLine
 10
23730.02972228484
 20
20060.56247340102
 30
0.0
 11
23730.02972228484
 21
20660.56247340102
 31
0.0
  0
LINE
  5
2AB
330
1F
100
AcDbEntity
  8
反射板
370
     0
100
AcDbLine
 10
23730.02972228484
 20
20660.56247340102
 30
0.0
 11
24430.52940998003
 21
21960.56247340102
 31
0.0
  0
LINE
  5
2AC
330
1F
100
AcDbEntity
  8
反射板
370
     0
100
AcDbLine
 10
22745.33265795005
 20
18210.56247340102
 30
0.0
 11
21400.52940998003
 21
13955.56247340102
 31
0.0
  0
LINE
  5
2AD
330
1F
100
AcDbEntity
  8
反射板
370
     0
100
AcDbLine
 10
22752.36824483822
 20
18204.50819950355
 30
0.0
 11
22976.45204442085
 21
18204.50819950355
 31
0.0
  0
LINE
  5
2AE
330
1F
100
AcDbEntity
  8
反射板
370
     0
100
AcDbLine
 10
21399.56614351128
 20
13955.21552657469
 30
0.0
 11
21800.52940998003
 21
13955.21552657469
 31
0.0
  0
LINE
  5
2AF
330
1F
100
AcDbEntity
  8
反射板
370
     0
100
AcDbLine
 10
22992.74052803125
 20
18210.56247340102
 30
0.0
 11
22992.74052803125
 21
17610.56247340102
 31
0.0
  0
LINE
  5
2B0
330
1F
100
AcDbEntity
  8
反射板
370
     0
100
AcDbLine
 10
22992.74052803125
 20
17610.56247340102
 30
0.0
 11
22202.60936001126
 21
15860.56247340102
 31
0.0
  0
LINE
  5
2B1
330
1F
100
AcDbEntity
  8
反射板
370
     0
100
AcDbLine
 10
22202.60936001126
 20
15860.56247340102
 30
0.0
 11
22202.60936001126
 21
15260.56247340102
 31
0.0
  0
LINE
  5
2B2
330
1F
100
AcDbEntity
  8
反射板
370
     0
100
AcDbLine
 10
22202.60936001126
 20
15260.56247340102
 30
0.0
 11
21800.52940998003
 21
13955.21552657469
 31
0.0
  0
LINE
  5
2B3
330
1F
100
AcDbEntity
  8
反射板
370
     0
100
AcDbLine
 10
22077.85909330357
 20
14855.56247340102
 30
0.0
 11
21684.97663046723
 21
14855.56247340102
 31
0.0
  0
LWPOLYLINE
  5
2B4
330
1F
100
AcDbEntity
  8
反射板
370
     0
100
AcDbPolyline
 90
        4
 70
   129
 43
0.0
 10
21520.19297735532
 20
15787.92901498117
 10
21242.97016244935
 20
14887.92901498117
 10
21635.8526252857
 20
14887.92901498117
 10
21920.2998457729
 20
15788.2759618075
  0
ARC
  5
2B5
330
1F
100
AcDbEntity
  8
反射板
370
     0
100
AcDbCircle
 10
21460.36119366768
 20
14871.7457441911
 30
0.0
 40
918.1348637399863
100
AcDbArc
 50
86.26357758027592
 51
266.2635775802759
  0
DIMENSION
  5
2B6
330
1F
100
AcDbEntity
  8
舞台
  6
Continuous
100
AcDbDimension
  2
*D21
 10
44545.10996516287
 20
23610.56247340102
 30
0.0
 11
44545.10996516287
 21
23485.56247340102
 31
0.0
 70
    33
  1
<>
 71
     5
 42
250.0000000000036
 73
     0
 74
     0
 75
     0
  3
標準寸法
100
AcDbAlignedDimension
 13
45053.17905640998
 23
23360.56247340102
 33
0.0
 14
45053.17905640998
 24
23610.56247340102
 34
0.0
1001
ACAD
1000
DSTYLE
1002
{
1070
   179
1070
     0
1002
}
  0
LWPOLYLINE
  5
2C0
102
{ACAD_REACTORS
330
2C1
330
2C1
102
}
330
1F
100
AcDbEntity
  8
kutai3
370
     0
100
AcDbPolyline
 90
       10
 70
   129
 43
0.0
 10
40920.52940998004
 20
29745.56247340102
 10
40920.52940998004
 20
30160.56247340102
 10
41880.52940998004
 20
30160.56247340102
 10
41880.52940998004
 20
29960.56247340102
 10
41605.52940998004
 20
29960.56247340102
 10
41605.52940998004
 20
29660.56247340102
 10
41280.52940998004
 20
29660.56247340102
 10
41280.52940998004
 20
27115.56247340102
 10
41080.52940998004
 20
27115.56247340102
 10
41080.52940998004
 20
29745.56247340102
  0
HATCH
  5
2C1
330
1F
100
AcDbEntity
  8
kutai3
  6
Continuous
100
AcDbHatch
 10
0.0
 20
0.0
 30
0.0
210
0.0
220
0.0
230
1.0
  2
SOLID
 70
     1
 71
     1
 91
        1
 92
        3
 72
     0
 73
     1
 93
       10
 10
40920.52940998004
 20
29745.56247340102
 10
40920.52940998004
 20
30160.56247340102
 10
41880.52940998004
 20
30160.56247340102
 10
41880.52940998004
 20
29960.56247340102
 10
41605.52940998004
 20
29960.56247340102
 10
41605.52940998004
 20
29660.56247340102
 10
41280.52940998004
 20
29660.56247340102
 10
41280.52940998004
 20
27115.56247340102
 10
41080.52940998004
 20
27115.56247340102
 10
41080.52940998004
 20
29745.56247340102
 97
        1
330
2C0
 75
     0
 76
     1
 98
        0
  0
LWPOLYLINE
  5
2C2
102
{ACAD_REACTORS
330
2C3
330
2C3
102
}
330
1F
100
AcDbEntity
  8
kutai3
370
     0
100
AcDbPolyline
 90
       65
 70
   129
 43
0.0
 10
46335.52940998004
 20
30160.56247340102
 10
46335.52940998004
 20
30160.56247340102
 10
47800.52940998004
 20
30160.56247340102
 10
47800.52940998004
 20
24760.56247340102
 10
48075.52940998003
 20
24760.56247340102
 10
48075.52940998003
 20
13065.56247340102
 10
47800.52940998004
 20
13065.56247340102
 10
47800.52940998004
 20
7490.56247340102
 10
46050.52940998004
 20
7490.562473401018
 10
46050.52940998004
 20
6140.562473401018
 10
45850.52940998004
 20
6140.562473401018
 10
45850.52940998004
 20
8660.56247340102
 10
46050.52940998004
 20
8660.56247340102
 10
46050.52940998004
 20
7690.56247340102
 10
47275.52940998004
 20
7690.56247340102
 10
47275.52940998004
 20
8140.562473401016
 10
47600.52940998004
 20
8140.562473401016
 10
47600.52940998004
 20
9910.56247340102
 10
46050.52940998004
 20
9910.562473401018
 10
46050.52940998004
 20
9660.56247340102
 10
45850.52940998004
 20
9660.56247340102
 10
45856.44404412638
 20
9910.562473401018
 10
45000.52940998004
 20
9910.562473401018
 10
45000.52940998004
 20
10310.56247340102
 10
45600.52940998004
 20
10310.56247340102
 10
45600.52940998004
 20
10110.56247340102
 10
47600.52940998004
 20
10110.56247340102
 10
47600.52940998003
 20
13065.56247340102
 10
45600.52940998004
 20
13065.56247340102
 10
45600.52940998004
 20
12865.56247340102
 10
45000.52940998004
 20
12865.56247340102
 10
45000.52940998004
 20
13238.56247340102
 10
47275.52940998004
 20
13238.56247340102
 10
47275.52940998004
 20
13755.56247340102
 10
47800.52940998004
 20
13755.56247340102
 10
47800.52940998004
 20
17210.56247340102
 10
46700.52940998004
 20
17210.56247340102
 10
46700.52940998004
 20
18060.56247340102
 10
46900.52940998004
 20
18060.56247340102
 10
46900.52940998004
 20
17410.56247340102
 10
47800.52940998004
 20
17410.56247340102
 10
47800.52940998004
 20
18410.56247340102
 10
47275.52940998004
 20
18410.56247340102
 10
47275.52940998004
 20
19210.56247340102
 10
47800.52940998004
 20
19210.56247340102
 10
47800.52940998004
 20
20210.56247340102
 10
46900.52940998004
 20
20210.56247340102
 10
46900.52940998004
 20
19560.56247340102
 10
46700.52940998004
 20
19560.56247340102
 10
46700.52940998004
 20
20660.56247340102
 10
46900.52940998004
 20
20660.56247340102
 10
46900.52940998004
 20
20410.56247340102
 10
47800.52940998004
 20
20410.56247340102
 10
47800.52940998004
 20
23035.56247340102
 10
46900.52940998004
 20
23035.56247340102
 10
46900.52940998004
 20
22835.56247340102
 10
46700.52940998004
 20
22835.56247340102
 10
46700.52940998004
 20
24060.56247340102
 10
47275.52940998004
 20
24060.56247340102
 10
47275.52940998004
 20
24760.56247340102
 10
47600.52940998003
 20
24760.56247340102
 10
47600.52940998004
 20
29420.56247340102
 10
47275.52940998004
 20
29420.56247340102
 10
47275.52940998004
 20
29960.56247340102
 10
46335.52940998004
 20
29960.56247340102
  0
HATCH
  5
2C3
330
1F
100
AcDbEntity
  8
kutai3
  6
Continuous
100
AcDbHatch
 10
0.0
 20
0.0
 30
0.0
210
0.0
220
0.0
230
1.0
  2
SOLID
 70
     1
 71
     1
 91
        1
 92
        3
 72
     0
 73
     1
 93
       64
 10
46335.52940998004
 20
30160.56247340102
 10
47800.52940998004
 20
30160.56247340102
 10
47800.52940998004
 20
24760.56247340102
 10
48075.52940998003
 20
24760.56247340102
 10
48075.52940998003
 20
13065.56247340102
 10
47800.52940998004
 20
13065.56247340102
 10
47800.52940998004
 20
7490.56247340102
 10
46050.52940998004
 20
7490.562473401018
 10
46050.52940998004
 20
6140.562473401018
 10
45850.52940998004
 20
6140.562473401018
 10
45850.52940998004
 20
8660.56247340102
 10
46050.52940998004
 20
8660.56247340102
 10
46050.52940998004
 20
7690.56247340102
 10
47275.52940998004
 20
7690.56247340102
 10
47275.52940998004
 20
8140.562473401016
 10
47600.52940998004
 20
8140.562473401016
 10
47600.52940998004
 20
9910.56247340102
 10
46050.52940998004
 20
9910.562473401018
 10
46050.52940998004
 20
9660.56247340102
 10
45850.52940998004
 20
9660.56247340102
 10
45856.44404412638
 20
9910.562473401018
 10
45000.52940998004
 20
9910.562473401018
 10
45000.52940998004
 20
10310.56247340102
 10
45600.52940998004
 20
10310.56247340102
 10
45600.52940998004
 20
10110.56247340102
 10
47600.52940998004
 20
10110.56247340102
 10
47600.52940998003
 20
13065.56247340102
 10
45600.52940998004
 20
13065.56247340102
 10
45600.52940998004
 20
12865.56247340102
 10
45000.52940998004
 20
12865.56247340102
 10
45000.52940998004
 20
13238.56247340102
 10
47275.52940998004
 20
13238.56247340102
 10
47275.52940998004
 20
13755.56247340102
 10
47800.52940998004
 20
13755.56247340102
 10
47800.52940998004
 20
17210.56247340102
 10
46700.52940998004
 20
17210.56247340102
 10
46700.52940998004
 20
18060.56247340102
 10
46900.52940998004
 20
18060.56247340102
 10
46900.52940998004
 20
17410.56247340102
 10
47800.52940998004
 20
17410.56247340102
 10
47800.52940998004
 20
18410.56247340102
 10
47275.52940998004
 20
18410.56247340102
 10
47275.52940998004
 20
19210.56247340102
 10
47800.52940998004
 20
19210.56247340102
 10
47800.52940998004
 20
20210.56247340102
 10
46900.52940998004
 20
20210.56247340102
 10
46900.52940998004
 20
19560.56247340102
 10
46700.52940998004
 20
19560.56247340102
 10
46700.52940998004
 20
20660.56247340102
 10
46900.52940998004
 20
20660.56247340102
 10
46900.52940998004
 20
20410.56247340102
 10
47800.52940998004
 20
20410.56247340102
 10
47800.52940998004
 20
23035.56247340102
 10
46900.52940998004
 20
23035.56247340102
 10
46900.52940998004
 20
22835.56247340102
 10
46700.52940998004
 20
22835.56247340102
 10
46700.52940998004
 20
24060.56247340102
 10
47275.52940998004
 20
24060.56247340102
 10
47275.52940998004
 20
24760.56247340102
 10
47600.52940998003
 20
24760.56247340102
 10
47600.52940998004
 20
29420.56247340102
 10
47275.52940998004
 20
29420.56247340102
 10
47275.52940998004
 20
29960.56247340102
 10
46335.52940998004
 20
29960.56247340102
 97
        1
330
2C2
 75
     0
 76
     1
 98
        0
  0
LWPOLYLINE
  5
2C4
102
{ACAD_REACTORS
330
2C5
330
2C5
102
}
330
1F
100
AcDbEntity
  8
kutai3
370
     0
100
AcDbPolyline
 90
        9
 70
   129
 43
0.0
 10
41280.52940998004
 20
25310.56247340102
 10
41280.52940998004
 20
25310.56247340102
 10
41480.52940998004
 20
25310.56247340102
 10
41480.52940998004
 20
24760.56247340102
 10
41880.52940998004
 20
24760.56247340102
 10
41880.52940998004
 20
24060.56247340102
 10
41080.52940998004
 20
24060.56247340102
 10
41080.52940998004
 20
24760.56247340102
 10
41280.52940998004
 20
24760.56247340102
  0
HATCH
  5
2C5
330
1F
100
AcDbEntity
  8
kutai3
  6
Continuous
100
AcDbHatch
 10
0.0
 20
0.0
 30
0.0
210
0.0
220
0.0
230
1.0
  2
SOLID
 70
     1
 71
     1
 91
        1
 92
        3
 72
     0
 73
     1
 93
        8
 10
41280.52940998004
 20
25310.56247340102
 10
41480.52940998004
 20
25310.56247340102
 10
41480.52940998004
 20
24760.56247340102
 10
41880.52940998004
 20
24760.56247340102
 10
41880.52940998004
 20
24060.56247340102
 10
41080.52940998004
 20
24060.56247340102
 10
41080.52940998004
 20
24760.56247340102
 10
41280.52940998004
 20
24760.56247340102
 97
        1
330
2C4
 75
     0
 76
     1
 98
        0
  0
LWPOLYLINE
  5
2C6
102
{ACAD_REACTORS
330
2C7
330
2C7
102
}
330
1F
100
AcDbEntity
  8
kutai3
370
     0
100
AcDbPolyline
 90
        8
 70
   129
 43
0.0
 10
34960.52940998004
 20
29420.56247340102
 10
34760.52940998004
 20
29420.56247340102
 10
34960.52940998004
 20
29420.56247340102
 10
34960.52940998004
 20
26660.56247340102
 10
16380.52940998003
 20
26660.56247340102
 10
16380.52940998003
 20
26860.56247340102
 10
34760.52940998004
 20
26860.56247340102
 10
34760.52940998004
 20
29420.56247340102
  0
HATCH
  5
2C7
330
1F
100
AcDbEntity
  8
kutai3
  6
Continuous
100
AcDbHatch
 10
0.0
 20
0.0
 30
0.0
210
0.0
220
0.0
230
1.0
  2
SOLID
 70
     1
 71
     1
 91
        1
 92
        3
 72
     0
 73
     1
 93
        8
 10
34960.52940998004
 20
29420.56247340102
 10
34760.52940998004
 20
29420.56247340102
 10
34960.52940998004
 20
29420.56247340102
 10
34960.52940998004
 20
26660.56247340102
 10
16380.52940998003
 20
26660.56247340102
 10
16380.52940998003
 20
26860.56247340102
 10
34760.52940998004
 20
26860.56247340102
 10
34760.52940998004
 20
29420.56247340102
 97
        1
330
2C6
 75
     0
 76
     1
 98
        0
  0
LWPOLYLINE
  5
2C8
102
{ACAD_REACTORS
330
2C9
330
2C9
102
}
330
1F
100
AcDbEntity
  8
kutai3
370
     0
100
AcDbPolyline
 90
       23
 70
   129
 43
0.0
 10
15135.52940998003
 20
24760.56247340102
 10
15135.52940998003
 20
24760.56247340102
 10
15135.52940998003
 20
24560.56247340102
 10
15980.52940998003
 20
24560.56247340102
 10
15980.52940998003
 20
24060.56247340102
 10
16780.52940998003
 20
24060.56247340102
 10
16780.52940998003
 20
24560.56247340102
 10
21550.52940998003
 20
24560.56247340102
 10
21550.52940998003
 20
24060.56247340102
 10
22250.52940998003
 20
24060.56247340102
 10
22250.52940998003
 20
24560.56247340102
 10
26570.52940998003
 20
24560.56247340102
 10
26570.52940998003
 20
24060.56247340102
 10
27270.52940998004
 20
24060.56247340102
 10
27270.52940998004
 20
24560.56247340102
 10
31590.52940998004
 20
24560.56247340102
 10
31590.52940998004
 20
24060.56247340102
 10
32290.52940998003
 20
24060.56247340102
 10
32290.52940998003
 20
24560.56247340102
 10
34560.52940998004
 20
24560.56247340102
 10
34560.52940998004
 20
24060.56247340102
 10
35360.52940998004
 20
24060.56247340102
 10
35360.52940998004
 20
24760.56247340102
  0
HATCH
  5
2C9
330
1F
100
AcDbEntity
  8
kutai3
  6
Continuous
100
AcDbHatch
 10
0.0
 20
0.0
 30
0.0
210
0.0
220
0.0
230
1.0
  2
SOLID
 70
     1
 71
     1
 91
        1
 92
        3
 72
     0
 73
     1
 93
       22
 10
15135.52940998003
 20
24760.56247340102
 10
15135.52940998003
 20
24560.56247340102
 10
15980.52940998003
 20
24560.56247340102
 10
15980.52940998003
 20
24060.56247340102
 10
16780.52940998003
 20
24060.56247340102
 10
16780.52940998003
 20
24560.56247340102
 10
21550.52940998003
 20
24560.56247340102
 10
21550.52940998003
 20
24060.56247340102
 10
22250.52940998003
 20
24060.56247340102
 10
22250.52940998003
 20
24560.56247340102
 10
26570.52940998003
 20
24560.56247340102
 10
26570.52940998003
 20
24060.56247340102
 10
27270.52940998004
 20
24060.56247340102
 10
27270.52940998004
 20
24560.56247340102
 10
31590.52940998004
 20
24560.56247340102
 10
31590.52940998004
 20
24060.56247340102
 10
32290.52940998003
 20
24060.56247340102
 10
32290.52940998003
 20
24560.56247340102
 10
34560.52940998004
 20
24560.56247340102
 10
34560.52940998004
 20
24060.56247340102
 10
35360.52940998004
 20
24060.56247340102
 10
35360.52940998004
 20
24760.56247340102
 97
        1
330
2C8
 75
     0
 76
     1
 98
        0
  0
LWPOLYLINE
  5
2CA
102
{ACAD_REACTORS
330
2CB
330
2CB
102
}
330
1F
100
AcDbEntity
  8
kutai3
370
     0
100
AcDbPolyline
 90
       31
 70
   129
 43
0.0
 10
11460.52940998003
 20
24760.56247340102
 10
11460.52940998003
 20
24760.56247340102
 10
13785.52940998003
 20
24760.56247340102
 10
13785.52940998003
 20
24560.56247340102
 10
13410.52940998003
 20
24560.56247340102
 10
13410.52940998003
 20
24060.56247340102
 10
11660.52940998003
 20
24060.56247340102
 10
11660.52940998003
 20
20410.56247340102
 10
12910.52940998003
 20
20410.56247340102
 10
12910.52940998003
 20
19685.56247340102
 10
12710.52940998003
 20
19685.56247340102
 10
12710.52940998003
 20
20210.56247340102
 10
11660.52940998003
 20
20210.56247340102
 10
11660.52940998003
 20
19210.56247340102
 10
12260.52940998003
 20
19210.56247340102
 10
12260.52940998003
 20
18410.56247340102
 10
11660.52940998003
 20
18410.56247340102
 10
11660.52940998003
 20
17410.56247340102
 10
12710.52940998003
 20
17410.56247340102
 10
12710.52940998003
 20
17935.56247340102
 10
12910.52940998003
 20
17935.56247340102
 10
12910.52940998003
 20
17210.56247340102
 10
11660.52940998003
 20
17210.56247340102
 10
11660.52940998003
 20
13755.56247340102
 10
12260.52940998003
 20
13755.56247340102
 10
12260.52940998003
 20
13065.56247340102
 10
11660.52940998003
 20
13065.56247340102
 10
11660.52940998003
 20
10510.56247340102
 10
12260.52940998003
 20
10510.56247340102
 10
12260.52940998003
 20
10310.56247340102
 10
11460.52940998003
 20
10310.56247340102
  0
HATCH
  5
2CB
330
1F
100
AcDbEntity
  8
kutai3
  6
Continuous
100
AcDbHatch
 10
0.0
 20
0.0
 30
0.0
210
0.0
220
0.0
230
1.0
  2
SOLID
 70
     1
 71
     1
 91
        1
 92
        3
 72
     0
 73
     1
 93
       30
 10
11460.52940998003
 20
24760.56247340102
 10
13785.52940998003
 20
24760.56247340102
 10
13785.52940998003
 20
24560.56247340102
 10
13410.52940998003
 20
24560.56247340102
 10
13410.52940998003
 20
24060.56247340102
 10
11660.52940998003
 20
24060.56247340102
 10
11660.52940998003
 20
20410.56247340102
 10
12910.52940998003
 20
20410.56247340102
 10
12910.52940998003
 20
19685.56247340102
 10
12710.52940998003
 20
19685.56247340102
 10
12710.52940998003
 20
20210.56247340102
 10
11660.52940998003
 20
20210.56247340102
 10
11660.52940998003
 20
19210.56247340102
 10
12260.52940998003
 20
19210.56247340102
 10
12260.52940998003
 20
18410.56247340102
 10
11660.52940998003
 20
18410.56247340102
 10
11660.52940998003
 20
17410.56247340102
 10
12710.52940998003
 20
17410.56247340102
 10
12710.52940998003
 20
17935.56247340102
 10
12910.52940998003
 20
17935.56247340102
 10
12910.52940998003
 20
17210.56247340102
 10
11660.52940998003
 20
17210.56247340102
 10
11660.52940998003
 20
13755.56247340102
 10
12260.52940998003
 20
13755.56247340102
 10
12260.52940998003
 20
13065.56247340102
 10
11660.52940998003
 20
13065.56247340102
 10
11660.52940998003
 20
10510.56247340102
 10
12260.52940998003
 20
10510.56247340102
 10
12260.52940998003
 20
10310.56247340102
 10
11460.52940998003
 20
10310.56247340102
 97
        1
330
2CA
 75
     0
 76
     1
 98
        0
  0
LWPOLYLINE
  5
2CC
102
{ACAD_REACTORS
330
2CD
330
2CD
102
}
330
1F
100
AcDbEntity
  8
kutai3
370
     0
100
AcDbPolyline
 90
       17
 70
   129
 43
0.0
 10
15980.52940998003
 20
13755.56247340102
 10
15980.52940998003
 20
13755.56247340102
 10
16780.52940998003
 20
13755.56247340102
 10
16780.52940998003
 20
13560.56247340102
 10
20150.52940998003
 20
13560.56247340102
 10
20150.52940998003
 20
13755.56247340102
 10
21900.52940998003
 20
13755.56247340102
 10
21900.52940998003
 20
13238.56247340102
 10
21400.52940998003
 20
13238.56247340102
 10
21400.52940998003
 20
13310.56247340102
 10
18275.52940998003
 20
13310.56247340102
 10
18275.52940998003
 20
11810.56247340102
 10
18025.52940998003
 20
11810.56247340102
 10
18022.52940998003
 20
13310.56247340102
 10
16780.52940998003
 20
13310.56247340102
 10
16780.52940998003
 20
13065.56247340102
 10
15980.52940998003
 20
13065.56247340102
  0
HATCH
  5
2CD
330
1F
100
AcDbEntity
  8
kutai3
  6
Continuous
100
AcDbHatch
 10
0.0
 20
0.0
 30
0.0
210
0.0
220
0.0
230
1.0
  2
SOLID
 70
     1
 71
     1
 91
        1
 92
        3
 72
     0
 73
     1
 93
       16
 10
15980.52940998003
 20
13755.56247340102
 10
16780.52940998003
 20
13755.56247340102
 10
16780.52940998003
 20
13560.56247340102
 10
20150.52940998003
 20
13560.56247340102
 10
20150.52940998003
 20
13755.56247340102
 10
21900.52940998003
 20
13755.56247340102
 10
21900.52940998003
 20
13238.56247340102
 10
21400.52940998003
 20
13238.56247340102
 10
21400.52940998003
 20
13310.56247340102
 10
18275.52940998003
 20
13310.56247340102
 10
18275.52940998003
 20
11810.56247340102
 10
18025.52940998003
 20
11810.56247340102
 10
18022.52940998003
 20
13310.56247340102
 10
16780.52940998003
 20
13310.56247340102
 10
16780.52940998003
 20
13065.56247340102
 10
15980.52940998003
 20
13065.56247340102
 97
        1
330
2CC
 75
     0
 76
     1
 98
        0
  0
LWPOLYLINE
  5
2CE
102
{ACAD_REACTORS
330
2CF
330
2CF
102
}
330
1F
100
AcDbEntity
  8
kutai3
370
     0
100
AcDbPolyline
 90
       23
 70
   129
 43
0.0
 10
20770.57763623146
 20
11910.56247340102
 10
20770.57763623146
 20
11910.56247340102
 10
20977.60663407757
 20
11910.56247340102
 10
20095.04849454268
 20
8610.56247340102
 10
19075.52940998003
 20
8883.224554156146
 10
19075.52940998003
 20
10310.56247340102
 10
19275.52940998003
 20
10310.56247340102
 10
19275.52940998003
 20
9036.765179909225
 10
19934.86087766589
 20
8860.432345528125
 10
20332.18754871168
 20
10310.56247340102
 10
16724.52202719377
 20
10310.56247340102
 10
16724.52202719377
 20
8166.087991381331
 10
13960.52940998003
 20
8168.321358487316
 10
13960.52940998003
 20
6140.56247340102
 10
13760.52940998003
 20
6140.56247340102
 10
13760.52940998003
 20
10310.56247340102
 10
13510.52940998003
 20
10310.56247340102
 10
13510.52940998003
 20
10510.56247340102
 10
13960.52940998003
 20
10510.56247340102
 10
13960.52940998003
 20
8368.321358487316
 10
16524.52202719377
 20
8368.321358487316
 10
16524.52202719377
 20
10509.69827764497
 10
20396.1590315803
 20
10510.56247340102
  0
HATCH
  5
2CF
330
1F
100
AcDbEntity
  8
kutai3
  6
Continuous
100
AcDbHatch
 10
0.0
 20
0.0
 30
0.0
210
0.0
220
0.0
230
1.0
  2
SOLID
 70
     1
 71
     1
 91
        1
 92
        3
 72
     0
 73
     1
 93
       22
 10
20770.57763623146
 20
11910.56247340102
 10
20977.60663407757
 20
11910.56247340102
 10
20095.04849454268
 20
8610.56247340102
 10
19075.52940998003
 20
8883.224554156146
 10
19075.52940998003
 20
10310.56247340102
 10
19275.52940998003
 20
10310.56247340102
 10
19275.52940998003
 20
9036.765179909225
 10
19934.86087766589
 20
8860.432345528125
 10
20332.18754871168
 20
10310.56247340102
 10
16724.52202719377
 20
10310.56247340102
 10
16724.52202719377
 20
8166.087991381331
 10
13960.52940998003
 20
8168.321358487316
 10
13960.52940998003
 20
6140.56247340102
 10
13760.52940998003
 20
6140.56247340102
 10
13760.52940998003
 20
10310.56247340102
 10
13510.52940998003
 20
10310.56247340102
 10
13510.52940998003
 20
10510.56247340102
 10
13960.52940998003
 20
10510.56247340102
 10
13960.52940998003
 20
8368.321358487316
 10
16524.52202719377
 20
8368.321358487316
 10
16524.52202719377
 20
10509.69827764497
 10
20396.1590315803
 20
10510.56247340102
 97
        1
330
2CE
 75
     0
 76
     1
 98
        0
  0
LWPOLYLINE
  5
2D0
102
{ACAD_REACTORS
330
2D1
330
2D1
102
}
330
1F
100
AcDbEntity
  8
kutai3
370
     0
100
AcDbPolyline
 90
       17
 70
   129
 43
0.0
 10
35960.52940998004
 20
13755.56247340102
 10
35960.52940998004
 20
13755.56247340102
 10
37710.52940998004
 20
13755.56247340102
 10
37710.52940998004
 20
13560.56247340102
 10
41080.52940998004
 20
13560.56247340102
 10
41080.52940998004
 20
13755.56247340102
 10
41880.52940998004
 20
13755.56247340102
 10
41880.52940998004
 20
13065.56247340102
 10
41080.52940998004
 20
13065.56247340102
 10
41080.52940998004
 20
13310.56247340102
 10
39835.52940998004
 20
13310.56247340102
 10
39835.52940998004
 20
11810.56247340102
 10
39585.52940998004
 20
11810.56247340102
 10
39585.52940998004
 20
13310.56247340102
 10
36460.52940998004
 20
13310.56247340102
 10
36460.52940998004
 20
13238.56247340102
 10
35960.52940998004
 20
13238.56247340102
  0
HATCH
  5
2D1
330
1F
100
AcDbEntity
  8
kutai3
  6
Continuous
100
AcDbHatch
 10
0.0
 20
0.0
 30
0.0
210
0.0
220
0.0
230
1.0
  2
SOLID
 70
     1
 71
     1
 91
        1
 92
        3
 72
     0
 73
     1
 93
       16
 10
35960.52940998004
 20
13755.56247340102
 10
37710.52940998004
 20
13755.56247340102
 10
37710.52940998004
 20
13560.56247340102
 10
41080.52940998004
 20
13560.56247340102
 10
41080.52940998004
 20
13755.56247340102
 10
41880.52940998004
 20
13755.56247340102
 10
41880.52940998004
 20
13065.56247340102
 10
41080.52940998004
 20
13065.56247340102
 10
41080.52940998004
 20
13310.56247340102
 10
39835.52940998004
 20
13310.56247340102
 10
39835.52940998004
 20
11810.56247340102
 10
39585.52940998004
 20
11810.56247340102
 10
39585.52940998004
 20
13310.56247340102
 10
36460.52940998004
 20
13310.56247340102
 10
36460.52940998004
 20
13238.56247340102
 10
35960.52940998004
 20
13238.56247340102
 97
        1
330
2D0
 75
     0
 76
     1
 98
        0
  0
LWPOLYLINE
  5
2D2
102
{ACAD_REACTORS
330
2D3
330
2D3
102
}
330
1F
100
AcDbEntity
  8
kutai3
370
     0
100
AcDbPolyline
 90
       17
 70
   129
 43
0.0
 10
36769.85093267521
 20
11910.56247340102
 10
36769.85093267521
 20
11910.56247340102
 10
37712.40505999669
 20
8487.602747865112
 10
38780.52940998004
 20
8781.723945686615
 10
38780.52940998004
 20
10310.56247340102
 10
38580.52940998004
 20
10310.56247340102
 10
38580.52940998004
 20
8934.09539304989
 10
37852.13202083295
 20
8733.522198936924
 10
37417.87455395153
 20
10310.56247340102
 10
41080.66518396
 20
10310.56247340102
 10
41089.24435258767
 20
8163.272656335277
 10
43432.85463885131
 20
8163.272656335277
 10
43432.85463885131
 20
8363.272656335277
 10
41280.66518396
 20
8363.272656335277
 10
41280.52940998004
 20
10510.56247340102
 10
37362.80209018341
 20
10510.56247340102
 10
36977.2948438066
 20
11910.56247340102
  0
HATCH
  5
2D3
330
1F
100
AcDbEntity
  8
kutai3
  6
Continuous
100
AcDbHatch
 10
0.0
 20
0.0
 30
0.0
210
0.0
220
0.0
230
1.0
  2
SOLID
 70
     1
 71
     1
 91
        1
 92
        3
 72
     0
 73
     1
 93
       16
 10
36769.85093267521
 20
11910.56247340102
 10
37712.40505999669
 20
8487.602747865112
 10
38780.52940998004
 20
8781.723945686615
 10
38780.52940998004
 20
10310.56247340102
 10
38580.52940998004
 20
10310.56247340102
 10
38580.52940998004
 20
8934.09539304989
 10
37852.13202083295
 20
8733.522198936924
 10
37417.87455395153
 20
10310.56247340102
 10
41080.66518396
 20
10310.56247340102
 10
41089.24435258767
 20
8163.272656335277
 10
43432.85463885131
 20
8163.272656335277
 10
43432.85463885131
 20
8363.272656335277
 10
41280.66518396
 20
8363.272656335277
 10
41280.52940998004
 20
10510.56247340102
 10
37362.80209018341
 20
10510.56247340102
 10
36977.2948438066
 20
11910.56247340102
 97
        1
330
2D2
 75
     0
 76
     1
 98
        0
  0
VIEWPORT
  5
2D6
330
1B
100
AcDbEntity
 67
     1
  8
0
100
AcDbViewport
 10
207.45470184005
 20
148.6616524414
 30
0.0
 40
423.7691503907
 41
308.981953125
 68
     1
 69
     1
 12
207.45470184005
 22
148.6616524414
 13
0.0
 23
0.0
 14
504.0
 24
504.0
 15
504.0
 25
504.0
 16
0.0
 26
0.0
 36
1.0
 17
0.0
 27
0.0
 37
0.0
 42
50.0
 43
0.0
 44
0.0
 45
308.981953125
 50
0.0
 51
0.0
 72
  1000
 90
    33312
  1

281
     0
 71
     1
 74
     0
110
0.0
120
0.0
130
0.0
111
1.0
121
0.0
131
0.0
112
0.0
122
1.0
132
0.0
 79
     0
146
0.0
170
     0
 61
     5
292
     1
282
     1
141
0.0
142
0.0
 63
   256
  0
VIEWPORT
  5
2D7
330
1B
100
AcDbEntity
 67
     1
  8
0
  6
Continuous
100
AcDbViewport
 10
210.0000469572269
 20
148.5000332054674
 30
0.0
 40
420.0000939144556
 41
297.0000664109348
 68
     2
 69
     2
 12
28887.37023527347
 22
18549.93911156237
 13
0.0
 23
0.0
 14
0.5
 24
0.5
 15
0.0
 25
0.0
 16
0.0
 26
0.0
 36
1.0
 17
0.0
 27
0.0
 37
0.0
 42
50.0
 43
0.0
 44
0.0
 45
29700.0069056918
 50
0.0
 51
0.0
 72
   100
331
6B
331
71
331
72
331
73
331
74
331
75
331
78
 90
   557152
  1

281
     0
 71
     1
 74
     0
110
0.0
120
0.0
130
0.0
111
1.0
121
0.0
131
0.0
112
0.0
122
1.0
132
0.0
 79
     0
146
0.0
170
     0
 61
     5
292
     1
282
     1
141
0.0
142
0.0
 63
   256
  0
ENDSEC
  0
SECTION
  2
OBJECTS
  0
DICTIONARY
  5
C
330
0
100
AcDbDictionary
281
     1
  3
ACAD_GROUP
350
D
  3
ACAD_LAYOUT
350
1A
  3
ACAD_MLEADERSTYLE
350
2DA
  3
ACAD_MLINESTYLE
350
17
  3
ACAD_PLOTSETTINGS
350
19
  3
ACAD_PLOTSTYLENAME
350
E
  3
ACAD_SCALELIST
350
3B
  3
ACAD_TABLESTYLE
350
83
  3
ACAD_VISUALSTYLE
350
2A
  0
DICTIONARY
  5
6C
330
6E
100
AcDbDictionary
280
     1
281
     1
  3
TC_OPTIONAL_DATA
360
6D
  0
DICTIONARY
  5
76
330
78
100
AcDbDictionary
280
     1
281
     1
  3
TC_OPTIONAL_DATA
360
77
  0
DICTIONARY
  5
2D4
330
1F
100
AcDbDictionary
280
     1
281
     1
  3
ACAD_SORTENTS
360
2D5
  0
DICTIONARY
  5
2D8
330
1B
100
AcDbDictionary
280
     1
281
     1
  3
ACAD_SORTENTS
360
2D9
  0
DICTIONARY
  5
D
102
{ACAD_REACTORS
330
C
102
}
330
C
100
AcDbDictionary
281
     1
  3
ｸﾞﾙｰﾌﾟ_2
350
A3
  3
ｸﾞﾙｰﾌﾟ_25
350
1F4
  3
ｸﾞﾙｰﾌﾟ_25_1
350
1FC
  3
ｸﾞﾙｰﾌﾟ_25_2
350
202
  3
ｸﾞﾙｰﾌﾟ_25_3
350
211
  3
ｸﾞﾙｰﾌﾟ_25_4
350
217
  3
ｸﾞﾙｰﾌﾟ_25_5
350
21E
  3
ｸﾞﾙｰﾌﾟ_25_6
350
224
  3
ｸﾞﾙｰﾌﾟ_25_7
350
232
  3
ｸﾞﾙｰﾌﾟ_3
350
251
  3
ｸﾞﾙｰﾌﾟ_3_1
350
265
  3
ｸﾞﾙｰﾌﾟ_3_2
350
26D
  3
ｸﾞﾙｰﾌﾟ_7
350
20B
  3
ｸﾞﾙｰﾌﾟ_7_1
350
22C
  3
ｸﾞﾙｰﾌﾟ_7_2
350
23F
  3
ｸﾞﾙｰﾌﾟ_8
350
248
  3
ｸﾞﾙｰﾌﾟ_8_1
350
273
  3
ｸﾞﾙｰﾌﾟ_8_2
350
279
  3
ｸﾞﾙｰﾌﾟ_8_3
350
27E
  3
ｸﾞﾙｰﾌﾟ_8_4
350
283
  3
ｸﾞﾙｰﾌﾟ_8_5
350
288
  3
ｸﾞﾙｰﾌﾟ_8_6
350
28D
  3
ｸﾞﾙｰﾌﾟ_8_7
350
292
  0
DICTIONARY
  5
1A
102
{ACAD_REACTORS
330
C
102
}
330
C
100
AcDbDictionary
281
     1
  3
Model
350
22
  3
ペーパー 1
350
1E
  0
DICTIONARY
  5
2DA
102
{ACAD_REACTORS
330
C
102
}
330
C
100
AcDbDictionary
281
     1
  0
DICTIONARY
  5
17
102
{ACAD_REACTORS
330
C
102
}
330
C
100
AcDbDictionary
281
     1
  3
Standard
350
18
  0
DICTIONARY
  5
19
102
{ACAD_REACTORS
330
C
102
}
330
C
100
AcDbDictionary
281
     1
  0
ACDBDICTIONARYWDFLT
  5
E
102
{ACAD_REACTORS
330
C
102
}
330
C
100
AcDbDictionary
281
     1
  3
Normal
350
F
100
AcDbDictionaryWithDefault
340
F
  0
DICTIONARY
  5
3B
102
{ACAD_REACTORS
330
C
102
}
330
C
100
AcDbDictionary
281
     1
  3
A0
350
3C
  3
A1
350
3D
  3
A2
350
3E
  3
A3
350
3F
  3
A4
350
40
  3
A5
350
41
  3
A6
350
42
  3
A7
350
43
  3
A8
350
44
  3
A9
350
45
  3
B0
350
46
  3
B1
350
47
  3
B2
350
48
  3
B3
350
49
  3
B4
350
4A
  3
B5
350
4B
  3
B6
350
4C
  3
B7
350
4D
  3
B8
350
4E
  3
B9
350
4F
  3
C0
350
50
  3
C1
350
51
  3
C2
350
52
  3
C3
350
53
  3
C4
350
54
  3
C5
350
55
  3
C6
350
56
  3
C7
350
57
  3
C8
350
58
  3
C9
350
59
  3
D0
350
5A
  3
D1
350
5B
  3
D2
350
5C
  0
DICTIONARY
  5
83
102
{ACAD_REACTORS
330
C
102
}
330
C
100
AcDbDictionary
281
     1
  3
標準
350
84
  0
DICTIONARY
  5
2A
102
{ACAD_REACTORS
330
C
102
}
330
C
100
AcDbDictionary
281
     1
  3
2dWireframe
350
2F
  3
3D Hidden
350
31
  3
3dWireframe
350
30
  3
Basic
350
32
  3
Brighten
350
36
  3
ColorChange
350
3A
  3
Conceptual
350
34
  3
Dim
350
35
  3
Facepattern
350
39
  3
Flat
350
2B
  3
FlatWithEdges
350
2C
  3
Gouraud
350
2D
  3
GouraudWithEdges
350
2E
  3
Linepattern
350
38
  3
Realistic
350
33
  3
Thicken
350
37
  0
TCOPTIONALDATA
  5
6D
102
{ACAD_REACTORS
330
6C
102
}
330
6C
100
TcOptionalData
 70
     1
 70
    64
 90
        2
  0
TCOPTIONALDATA
  5
77
102
{ACAD_REACTORS
330
76
102
}
330
76
100
TcOptionalData
 70
     1
 70
    64
 90
       11
  0
SORTENTSTABLE
  5
2D5
102
{ACAD_REACTORS
330
2D4
102
}
330
2D4
100
AcDbSortentsTable
330
1F
331
85
  5
86
331
86
  5
1E9
331
87
  5
88
331
88
  5
260
331
89
  5
8A
331
8A
  5
1EB
331
8B
  5
8C
331
8C
  5
2A3
331
8D
  5
8E
331
8E
  5
1ED
331
8F
  5
90
331
90
  5
262
331
91
  5
92
331
92
  5
1EF
331
93
  5
94
331
94
  5
2B6
331
95
  5
96
331
96
  5
1F1
331
97
  5
98
331
98
  5
264
331
99
  5
9A
331
9A
  5
1F3
331
9B
  5
9C
331
9C
  5
2A4
331
9D
  5
9E
331
9E
  5
1F8
331
9F
  5
A0
331
A0
  5
269
331
A1
  5
A2
331
A2
  5
1FA
331
A6
  5
A7
331
A7
  5
2A5
331
A8
  5
A9
331
A9
  5
1FF
331
AA
  5
AB
331
AB
  5
26B
331
AC
  5
AD
331
AD
  5
201
331
AE
  5
AF
331
AF
  5
2A6
331
B0
  5
B1
331
B1
  5
206
331
B2
  5
B3
331
B3
  5
270
331
B4
  5
B5
331
B5
  5
208
331
B6
  5
B7
331
B7
  5
2A7
331
B8
  5
B9
331
B9
  5
20A
331
BA
  5
BB
331
BB
  5
272
331
BC
  5
BD
331
BD
  5
20F
331
BE
  5
BF
331
BF
  5
2A8
331
C0
  5
C1
331
C1
  5
214
331
C2
  5
C3
331
C3
  5
277
331
C4
  5
C5
331
C5
  5
216
331
C6
  5
C7
331
C7
  5
2A9
331
C8
  5
C9
331
C9
  5
21B
331
CA
  5
CB
331
CB
  5
27C
331
CC
  5
CD
331
CD
  5
21D
331
CE
  5
CF
331
CF
  5
2AA
331
D0
  5
D1
331
D1
  5
222
331
D2
  5
D3
331
D3
  5
281
331
D4
  5
D5
331
D5
  5
227
331
D6
  5
D7
331
D7
  5
2AB
331
D8
  5
D9
331
D9
  5
229
331
DA
  5
DB
331
DB
  5
286
331
DC
  5
DD
331
DD
  5
22B
331
DE
  5
DF
331
DF
  5
2AC
331
E0
  5
E1
331
E1
  5
230
331
E2
  5
E3
331
E3
  5
28B
331
E4
  5
E5
331
E5
  5
235
331
E6
  5
E7
331
E7
  5
2AD
331
E8
  5
E9
331
E9
  5
237
331
EA
  5
EB
331
EB
  5
290
331
EC
  5
ED
331
ED
  5
239
331
EE
  5
EF
331
EF
  5
2AE
331
F0
  5
FC
331
FC
  5
23B
331
107
  5
112
331
112
  5
295
331
11D
  5
128
331
128
  5
23D
331
133
  5
13E
331
13E
  5
2AF
331
149
  5
154
331
154
  5
242
331
15F
  5
16B
331
16B
  5
297
331
176
  5
181
331
181
  5
244
331
18C
  5
197
331
197
  5
2B0
331
1A2
  5
1AD
331
1AD
  5
246
331
1AE
  5
1AF
331
1AF
  5
299
331
1B0
  5
1B1
331
1B1
  5
24B
331
1B2
  5
1B3
331
1B3
  5
2B1
331
1B4
  5
1B5
331
1B5
  5
24D
331
1B6
  5
1B7
331
1B7
  5
29B
331
1B8
  5
1B9
331
1B9
  5
24F
331
1BA
  5
1BB
331
1BB
  5
2B2
331
1BC
  5
1BD
331
1BD
  5
254
331
1BE
  5
1BF
331
1BF
  5
29D
331
1C0
  5
1CB
331
1CB
  5
256
331
1D6
  5
1D7
331
1D7
  5
2B3
331
1D8
  5
1D9
331
1D9
  5
258
331
1DA
  5
1DB
331
1DB
  5
29F
331
1DC
  5
1DD
331
1DD
  5
25A
331
1DE
  5
1DF
331
1DF
  5
2B4
331
1E0
  5
1E1
331
1E1
  5
25C
331
1E2
  5
1E3
331
1E3
  5
2A1
331
1E4
  5
1E5
331
1E5
  5
25E
331
1E6
  5
1E7
331
1E7
  5
2B5
331
1E8
  5
85
331
1E9
  5
87
331
1EA
  5
89
331
1EB
  5
8B
331
1EC
  5
8D
331
1ED
  5
8F
331
1EE
  5
91
331
1EF
  5
93
331
1F0
  5
95
331
1F1
  5
97
331
1F2
  5
99
331
1F3
  5
9B
331
1F7
  5
9D
331
1F8
  5
9F
331
1F9
  5
A1
331
1FA
  5
A6
331
1FB
  5
A8
331
1FF
  5
AA
331
200
  5
AC
331
201
  5
AE
331
205
  5
B0
331
206
  5
B2
331
207
  5
B4
331
208
  5
B6
331
209
  5
B8
331
20A
  5
BA
331
20E
  5
BC
331
20F
  5
BE
331
210
  5
C0
331
214
  5
C2
331
215
  5
C4
331
216
  5
C6
331
21A
  5
C8
331
21B
  5
CA
331
21C
  5
CC
331
21D
  5
CE
331
221
  5
D0
331
222
  5
D2
331
223
  5
D4
331
227
  5
D6
331
228
  5
D8
331
229
  5
DA
331
22A
  5
DC
331
22B
  5
DE
331
22F
  5
E0
331
230
  5
E2
331
231
  5
E4
331
235
  5
E6
331
236
  5
E8
331
237
  5
EA
331
238
  5
EC
331
239
  5
EE
331
23A
  5
F0
331
23B
  5
107
331
23C
  5
11D
331
23D
  5
133
331
23E
  5
149
331
242
  5
15F
331
243
  5
176
331
244
  5
18C
331
245
  5
1A2
331
246
  5
1AE
331
247
  5
1B0
331
24B
  5
1B2
331
24C
  5
1B4
331
24D
  5
1B6
331
24E
  5
1B8
331
24F
  5
1BA
331
250
  5
1BC
331
254
  5
1BE
331
255
  5
1C0
331
256
  5
1D6
331
257
  5
1D8
331
258
  5
1DA
331
259
  5
1DC
331
25A
  5
1DE
331
25B
  5
1E0
331
25C
  5
1E2
331
25D
  5
1E4
331
25E
  5
1E6
331
25F
  5
1E8
331
260
  5
1EA
331
261
  5
1EC
331
262
  5
1EE
331
263
  5
1F0
331
264
  5
1F2
331
268
  5
1F7
331
269
  5
1F9
331
26A
  5
1FB
331
26B
  5
200
331
26C
  5
205
331
270
  5
207
331
271
  5
209
331
272
  5
20E
331
276
  5
210
331
277
  5
215
331
278
  5
21A
331
27C
  5
21C
331
27D
  5
221
331
281
  5
223
331
282
  5
228
331
286
  5
22A
331
287
  5
22F
331
28B
  5
231
331
28C
  5
236
331
290
  5
238
331
291
  5
23A
331
295
  5
23C
331
296
  5
23E
331
297
  5
243
331
298
  5
245
331
299
  5
247
331
29A
  5
24C
331
29B
  5
24E
331
29C
  5
250
331
29D
  5
255
331
29E
  5
257
331
29F
  5
259
331
2A0
  5
25B
331
2A1
  5
25D
331
2A2
  5
25F
331
2A3
  5
261
331
2A4
  5
263
331
2A5
  5
268
331
2A6
  5
26A
331
2A7
  5
26C
331
2A8
  5
271
331
2A9
  5
276
331
2AA
  5
278
331
2AB
  5
27D
331
2AC
  5
282
331
2AD
  5
287
331
2AE
  5
28C
331
2AF
  5
291
331
2B0
  5
296
331
2B1
  5
298
331
2B2
  5
29A
331
2B3
  5
29C
331
2B4
  5
29E
331
2B5
  5
2A0
331
2B6
  5
2A2
331
2C0
  5
2C1
331
2C1
  5
2C3
331
2C2
  5
2CE
331
2C3
  5
2C5
331
2C4
  5
2D3
331
2C5
  5
2C7
331
2C6
  5
2CF
331
2C7
  5
2C9
331
2C8
  5
2CD
331
2C9
  5
2CB
331
2CA
  5
2C2
331
2CB
  5
2C4
331
2CC
  5
2C6
331
2CD
  5
2C8
331
2CE
  5
2CA
331
2CF
  5
2CC
331
2D3
  5
2C0
  0
SORTENTSTABLE
  5
2D9
102
{ACAD_REACTORS
330
2D8
102
}
330
2D8
100
AcDbSortentsTable
330
1B
  0
GROUP
  5
A3
102
{ACAD_REACTORS
330
D
102
}
102
{ACAD_XDICTIONARY
360
A4
102
}
330
D
100
AcDbGroup
300

 70
     0
 71
     1
340
9A
340
9B
340
9C
340
9D
340
9E
340
9F
340
A0
340
A1
340
A2
  0
GROUP
  5
1F4
102
{ACAD_REACTORS
330
D
102
}
102
{ACAD_XDICTIONARY
360
1F5
102
}
330
D
100
AcDbGroup
300

 70
     0
 71
     1
340
1F1
340
1F2
340
1F3
  0
GROUP
  5
1FC
102
{ACAD_REACTORS
330
D
102
}
102
{ACAD_XDICTIONARY
360
1FD
102
}
330
D
100
AcDbGroup
300

 70
     0
 71
     1
340
1F9
340
1FA
340
1FB
  0
GROUP
  5
202
102
{ACAD_REACTORS
330
D
102
}
102
{ACAD_XDICTIONARY
360
203
102
}
330
D
100
AcDbGroup
300

 70
     0
 71
     1
340
1FF
340
200
340
201
  0
GROUP
  5
211
102
{ACAD_REACTORS
330
D
102
}
102
{ACAD_XDICTIONARY
360
212
102
}
330
D
100
AcDbGroup
300

 70
     0
 71
     1
340
20E
340
20F
340
210
  0
GROUP
  5
217
102
{ACAD_REACTORS
330
D
102
}
102
{ACAD_XDICTIONARY
360
218
102
}
330
D
100
AcDbGroup
300

 70
     0
 71
     1
340
214
340
215
340
216
  0
GROUP
  5
21E
102
{ACAD_REACTORS
330
D
102
}
102
{ACAD_XDICTIONARY
360
21F
102
}
330
D
100
AcDbGroup
300

 70
     0
 71
     1
340
21B
340
21C
340
21D
  0
GROUP
  5
224
102
{ACAD_REACTORS
330
D
102
}
102
{ACAD_XDICTIONARY
360
225
102
}
330
D
100
AcDbGroup
300

 70
     0
 71
     1
340
221
340
222
340
223
  0
GROUP
  5
232
102
{ACAD_REACTORS
330
D
102
}
102
{ACAD_XDICTIONARY
360
233
102
}
330
D
100
AcDbGroup
300

 70
     0
 71
     1
340
22F
340
230
340
231
  0
GROUP
  5
251
102
{ACAD_REACTORS
330
D
102
}
102
{ACAD_XDICTIONARY
360
252
102
}
330
D
100
AcDbGroup
300

 70
     0
 71
     1
340
24C
340
24D
340
24E
340
24F
340
250
  0
GROUP
  5
265
102
{ACAD_REACTORS
330
D
102
}
102
{ACAD_XDICTIONARY
360
266
102
}
330
D
100
AcDbGroup
300

 70
     0
 71
     1
340
260
340
261
340
262
340
263
340
264
  0
GROUP
  5
26D
102
{ACAD_REACTORS
330
D
102
}
102
{ACAD_XDICTIONARY
360
26E
102
}
330
D
100
AcDbGroup
300

 70
     0
 71
     1
340
268
340
269
340
26A
340
26B
340
26C
  0
GROUP
  5
20B
102
{ACAD_REACTORS
330
D
102
}
102
{ACAD_XDICTIONARY
360
20C
102
}
330
D
100
AcDbGroup
300

 70
     0
 71
     1
340
207
340
208
340
209
340
20A
  0
GROUP
  5
22C
102
{ACAD_REACTORS
330
D
102
}
102
{ACAD_XDICTIONARY
360
22D
102
}
330
D
100
AcDbGroup
300

 70
     0
 71
     1
340
228
340
229
340
22A
340
22B
  0
GROUP
  5
23F
102
{ACAD_REACTORS
330
D
102
}
102
{ACAD_XDICTIONARY
360
240
102
}
330
D
100
AcDbGroup
300

 70
     0
 71
     1
340
23B
340
23C
340
23D
340
23E
  0
GROUP
  5
248
102
{ACAD_REACTORS
330
D
102
}
102
{ACAD_XDICTIONARY
360
249
102
}
330
D
100
AcDbGroup
300

 70
     0
 71
     1
340
246
340
247
  0
GROUP
  5
273
102
{ACAD_REACTORS
330
D
102
}
102
{ACAD_XDICTIONARY
360
274
102
}
330
D
100
AcDbGroup
300

 70
     0
 71
     1
340
271
340
272
  0
GROUP
  5
279
102
{ACAD_REACTORS
330
D
102
}
102
{ACAD_XDICTIONARY
360
27A
102
}
330
D
100
AcDbGroup
300

 70
     0
 71
     1
340
277
340
278
  0
GROUP
  5
27E
102
{ACAD_REACTORS
330
D
102
}
102
{ACAD_XDICTIONARY
360
27F
102
}
330
D
100
AcDbGroup
300

 70
     0
 71
     1
340
27C
340
27D
  0
GROUP
  5
283
102
{ACAD_REACTORS
330
D
102
}
102
{ACAD_XDICTIONARY
360
284
102
}
330
D
100
AcDbGroup
300

 70
     0
 71
     1
340
281
340
282
  0
GROUP
  5
288
102
{ACAD_REACTORS
330
D
102
}
102
{ACAD_XDICTIONARY
360
289
102
}
330
D
100
AcDbGroup
300

 70
     0
 71
     1
340
286
340
287
  0
GROUP
  5
28D
102
{ACAD_REACTORS
330
D
102
}
102
{ACAD_XDICTIONARY
360
28E
102
}
330
D
100
AcDbGroup
300

 70
     0
 71
     1
340
28B
340
28C
  0
GROUP
  5
292
102
{ACAD_REACTORS
330
D
102
}
102
{ACAD_XDICTIONARY
360
293
102
}
330
D
100
AcDbGroup
300

 70
     0
 71
     1
340
290
340
291
  0
LAYOUT
  5
22
102
{ACAD_REACTORS
330
1A
102
}
330
1A
100
AcDbPlotSettings
  1

  2
none_device
  4
ISO_A3_(420.00_x_297.00_MM)
  6

 40
7.5
 41
20.0
 42
7.5
 43
20.0
 44
420.0
 45
297.0
 46
-97.675652734375
 47
-52.793975
 48
0.0
 49
0.0
140
0.0
141
0.0
142
1.0
143
100.0
 70
  1696
 72
     1
 73
     0
 74
     0
  7

 75
     0
 76
     0
 77
     2
 78
   300
147
0.0001722213453914
148
0.0
149
0.0
100
AcDbLayout
  1
Model
 70
     1
 71
     0
 10
9017.5652734375
 20
3279.3975
 11
51017.5746648829
 21
32979.4041410935
 12
0.0
 22
0.0
 32
0.0
 14
11460.52940998003
 24
6140.562473401018
 34
0.0
 15
48075.52940998003
 25
30160.56247340102
 35
0.0
146
0.0
 13
0.0
 23
0.0
 33
0.0
 16
1.0
 26
0.0
 36
0.0
 17
0.0
 27
1.0
 37
0.0
 76
     0
330
1F
331
29
  0
LAYOUT
  5
1E
102
{ACAD_REACTORS
330
1A
102
}
330
1A
100
AcDbPlotSettings
  1

  2
none_device
  4
ISO_A3_(420.00_x_297.00_MM)
  6

 40
7.5
 41
20.0
 42
7.5
 43
20.0
 44
420.0
 45
297.0
 46
-7.5
 47
-20.0
 48
0.0
 49
0.0
140
0.0
141
0.0
142
1.0
143
1.0
 70
   688
 72
     1
 73
     0
 74
     5
  7

 75
    16
 76
     0
 77
     2
 78
   300
147
1.0
148
0.0
149
0.0
100
AcDbLayout
  1
ペーパー 1
 70
     1
 71
     1
 10
0.0
 20
0.0
 11
420.0000939145
 21
297.0000664109
 12
0.0
 22
0.0
 32
0.0
 14
0.0
 24
0.0
 34
0.0
 15
420.0000939145
 25
297.0000664109
 35
0.0
146
0.0
 13
0.0
 23
0.0
 33
0.0
 16
1.0
 26
0.0
 36
0.0
 17
0.0
 27
1.0
 37
0.0
 76
     0
330
1B
331
2D6
  0
MLINESTYLE
  5
18
102
{ACAD_REACTORS
330
17
102
}
330
17
100
AcDbMlineStyle
  2
Standard
 70
     1
  3

 62
   256
 51
90.0
 52
90.0
 71
     5
 49
0.5
 62
   256
  6
BYLAYER
 49
-0.5
 62
   256
  6
BYLAYER
 49
5.0
 62
   256
  6
BYLAYER
 49
0.0
 62
   256
  6
BYLAYER
 49
-5.0
 62
   256
  6
BYLAYER
  0
ACDBPLACEHOLDER
  5
F
102
{ACAD_REACTORS
330
E
102
}
330
E
  0
SCALE
  5
3C
102
{ACAD_REACTORS
330
3B
102
}
330
3B
100
AcDbScale
 70
     0
300
1:1
140
1.0
141
1.0
290
     1
  0
SCALE
  5
3D
102
{ACAD_REACTORS
330
3B
102
}
330
3B
100
AcDbScale
 70
     0
300
1:2
140
1.0
141
2.0
290
     0
  0
SCALE
  5
3E
102
{ACAD_REACTORS
330
3B
102
}
330
3B
100
AcDbScale
 70
     0
300
1:4
140
1.0
141
4.0
290
     0
  0
SCALE
  5
3F
102
{ACAD_REACTORS
330
3B
102
}
330
3B
100
AcDbScale
 70
     0
300
1:5
140
1.0
141
5.0
290
     0
  0
SCALE
  5
40
102
{ACAD_REACTORS
330
3B
102
}
330
3B
100
AcDbScale
 70
     0
300
1:8
140
1.0
141
8.0
290
     0
  0
SCALE
  5
41
102
{ACAD_REACTORS
330
3B
102
}
330
3B
100
AcDbScale
 70
     0
300
1:10
140
1.0
141
10.0
290
     0
  0
SCALE
  5
42
102
{ACAD_REACTORS
330
3B
102
}
330
3B
100
AcDbScale
 70
     0
300
1:16
140
1.0
141
16.0
290
     0
  0
SCALE
  5
43
102
{ACAD_REACTORS
330
3B
102
}
330
3B
100
AcDbScale
 70
     0
300
1:20
140
1.0
141
20.0
290
     0
  0
SCALE
  5
44
102
{ACAD_REACTORS
330
3B
102
}
330
3B
100
AcDbScale
 70
     0
300
1:30
140
1.0
141
30.0
290
     0
  0
SCALE
  5
45
102
{ACAD_REACTORS
330
3B
102
}
330
3B
100
AcDbScale
 70
     0
300
1:40
140
1.0
141
40.0
290
     0
  0
SCALE
  5
46
102
{ACAD_REACTORS
330
3B
102
}
330
3B
100
AcDbScale
 70
     0
300
1:50
140
1.0
141
50.0
290
     0
  0
SCALE
  5
47
102
{ACAD_REACTORS
330
3B
102
}
330
3B
100
AcDbScale
 70
     0
300
1:100
140
1.0
141
100.0
290
     0
  0
SCALE
  5
48
102
{ACAD_REACTORS
330
3B
102
}
330
3B
100
AcDbScale
 70
     0
300
2:1
140
2.0
141
1.0
290
     0
  0
SCALE
  5
49
102
{ACAD_REACTORS
330
3B
102
}
330
3B
100
AcDbScale
 70
     0
300
4:1
140
4.0
141
1.0
290
     0
  0
SCALE
  5
4A
102
{ACAD_REACTORS
330
3B
102
}
330
3B
100
AcDbScale
 70
     0
300
8:1
140
8.0
141
1.0
290
     0
  0
SCALE
  5
4B
102
{ACAD_REACTORS
330
3B
102
}
330
3B
100
AcDbScale
 70
     0
300
10:1
140
10.0
141
1.0
290
     0
  0
SCALE
  5
4C
102
{ACAD_REACTORS
330
3B
102
}
330
3B
100
AcDbScale
 70
     0
300
100:1
140
100.0
141
1.0
290
     0
  0
SCALE
  5
4D
102
{ACAD_REACTORS
330
3B
102
}
330
3B
100
AcDbScale
 70
     0
300
1/128" = 1'-0"
140
0.0078125
141
12.0
290
     0
  0
SCALE
  5
4E
102
{ACAD_REACTORS
330
3B
102
}
330
3B
100
AcDbScale
 70
     0
300
1/64" = 1'-0"
140
0.015625
141
12.0
290
     0
  0
SCALE
  5
4F
102
{ACAD_REACTORS
330
3B
102
}
330
3B
100
AcDbScale
 70
     0
300
1/32" = 1'-0"
140
0.03125
141
12.0
290
     0
  0
SCALE
  5
50
102
{ACAD_REACTORS
330
3B
102
}
330
3B
100
AcDbScale
 70
     0
300
1/16" = 1'-0"
140
0.0625
141
12.0
290
     0
  0
SCALE
  5
51
102
{ACAD_REACTORS
330
3B
102
}
330
3B
100
AcDbScale
 70
     0
300
3/32" = 1'-0"
140
0.09375
141
12.0
290
     0
  0
SCALE
  5
52
102
{ACAD_REACTORS
330
3B
102
}
330
3B
100
AcDbScale
 70
     0
300
1/8" = 1'-0"
140
0.125
141
12.0
290
     0
  0
SCALE
  5
53
102
{ACAD_REACTORS
330
3B
102
}
330
3B
100
AcDbScale
 70
     0
300
3/16" = 1'-0"
140
0.1875
141
12.0
290
     0
  0
SCALE
  5
54
102
{ACAD_REACTORS
330
3B
102
}
330
3B
100
AcDbScale
 70
     0
300
1/4" = 1'-0"
140
0.25
141
12.0
290
     0
  0
SCALE
  5
55
102
{ACAD_REACTORS
330
3B
102
}
330
3B
100
AcDbScale
 70
     0
300
3/8" = 1'-0"
140
0.375
141
12.0
290
     0
  0
SCALE
  5
56
102
{ACAD_REACTORS
330
3B
102
}
330
3B
100
AcDbScale
 70
     0
300
1/2" = 1'-0"
140
0.5
141
12.0
290
     0
  0
SCALE
  5
57
102
{ACAD_REACTORS
330
3B
102
}
330
3B
100
AcDbScale
 70
     0
300
3/4" = 1'-0"
140
0.75
141
12.0
290
     0
  0
SCALE
  5
58
102
{ACAD_REACTORS
330
3B
102
}
330
3B
100
AcDbScale
 70
     0
300
1" = 1'-0"
140
1.0
141
12.0
290
     0
  0
SCALE
  5
59
102
{ACAD_REACTORS
330
3B
102
}
330
3B
100
AcDbScale
 70
     0
300
1-1/2" = 1'-0"
140
1.5
141
12.0
290
     0
  0
SCALE
  5
5A
102
{ACAD_REACTORS
330
3B
102
}
330
3B
100
AcDbScale
 70
     0
300
3" = 1'-0"
140
3.0
141
12.0
290
     0
  0
SCALE
  5
5B
102
{ACAD_REACTORS
330
3B
102
}
330
3B
100
AcDbScale
 70
     0
300
6" = 1'-0"
140
6.0
141
12.0
290
     0
  0
SCALE
  5
5C
102
{ACAD_REACTORS
330
3B
102
}
330
3B
100
AcDbScale
 70
     0
300
1'-0" = 1'-0"
140
12.0
141
12.0
290
     0
  0
TABLESTYLE
  5
84
102
{ACAD_REACTORS
330
83
102
}
330
83
100
AcDbTableStyle
  3

 70
     0
 71
     0
 40
1.302083333333333
 41
1.302083333333333
280
     0
281
     0
  7
Standard
140
3.90625
170
     5
 62
     0
 63
     7
421
 16383999
283
     0
 90
      512
 91
        0
  1

274
    -2
284
     1
 64
     0
275
    -2
285
     1
 65
     0
276
    -2
286
     1
 66
     0
277
    -2
287
     1
 67
     0
278
    -2
288
     1
 68
     0
279
    -2
289
     1
 69
     0
  7
Standard
140
3.90625
170
     5
 62
     0
 63
     7
421
 16383999
283
     0
 90
      512
 91
        0
  1

274
    -2
284
     1
 64
     0
275
    -2
285
     1
 65
     0
276
    -2
286
     1
 66
     0
277
    -2
287
     1
 67
     0
278
    -2
288
     1
 68
     0
279
    -2
289
     1
 69
     0
  7
Standard
140
3.90625
170
     5
 62
     0
 63
     7
421
 16383999
283
     0
 90
      512
 91
        0
  1

274
    -2
284
     1
 64
     0
275
    -2
285
     1
 65
     0
276
    -2
286
     1
 66
     0
277
    -2
287
     1
 67
     0
278
    -2
288
     1
 68
     0
279
    -2
289
     1
 69
     0
  0
VISUALSTYLE
  5
2F
102
{ACAD_REACTORS
330
2A
102
}
330
2A
100
AcDbVisualStyle
  2
2dWireframe
 70
     4
 71
     0
 72
     2
 73
     0
 90
        0
 40
-0.6
 41
-30.0
 62
     5
 63
     7
421
 16777215
 74
     1
 91
        4
 64
     7
 65
   257
 75
     1
175
     1
 42
1.0
 92
        0
 66
   257
 43
1.0
 76
     1
 77
     6
 78
     2
 67
     7
 79
     5
170
     0
171
     0
290
     0
174
     0
 93
        1
 44
0.0
173
     0
291
     0
 45
0.0
  0
VISUALSTYLE
  5
31
102
{ACAD_REACTORS
330
2A
102
}
330
2A
100
AcDbVisualStyle
  2
3D Hidden
 70
     6
 71
     1
 72
     2
 73
     2
 90
        0
 40
-0.6
 41
-30.0
 62
     5
 63
     7
421
 16777215
 74
     2
 91
        2
 64
     7
 65
   257
 75
     2
175
     1
 42
40.0
 92
        0
 66
   257
 43
1.0
 76
     1
 77
     6
 78
     2
 67
     7
 79
     3
170
     0
171
     0
290
     0
174
     0
 93
        1
 44
0.0
173
     0
291
     0
 45
0.0
  0
VISUALSTYLE
  5
30
102
{ACAD_REACTORS
330
2A
102
}
330
2A
100
AcDbVisualStyle
  2
3dWireframe
 70
     5
 71
     0
 72
     2
 73
     0
 90
        0
 40
-0.6
 41
-30.0
 62
     5
 63
     7
421
 16777215
 74
     1
 91
        4
 64
     7
 65
   257
 75
     1
175
     1
 42
1.0
 92
        0
 66
   257
 43
1.0
 76
     1
 77
     6
 78
     2
 67
     7
 79
     5
170
     0
171
     0
290
     0
174
     0
 93
        1
 44
0.0
173
     0
291
     0
 45
0.0
  0
VISUALSTYLE
  5
32
102
{ACAD_REACTORS
330
2A
102
}
330
2A
100
AcDbVisualStyle
  2
Basic
 70
     7
 71
     1
 72
     0
 73
     1
 90
        0
 40
-0.6
 41
-30.0
 62
     5
 63
     7
421
 16777215
 74
     0
 91
        4
 64
     7
 65
   257
 75
     1
175
     1
 42
1.0
 92
        8
 66
     7
 43
1.0
 76
     1
 77
     6
 78
     2
 67
     7
 79
     5
170
     0
171
     0
290
     0
174
     0
 93
        1
 44
0.0
173
     0
291
     1
 45
0.0
  0
VISUALSTYLE
  5
36
102
{ACAD_REACTORS
330
2A
102
}
330
2A
100
AcDbVisualStyle
  2
Brighten
 70
    12
 71
     2
 72
     2
 73
     0
 90
        0
 40
-0.6
 41
-30.0
 62
     5
 63
     7
421
 16777215
 74
     1
 91
        4
 64
     7
 65
   257
 75
     1
175
     1
 42
1.0
 92
        8
 66
     7
 43
1.0
 76
     1
 77
     6
 78
     2
 67
     7
 79
     5
170
     0
171
     0
290
     0
174
     0
 93
        1
 44
50.0
173
     0
291
     1
 45
0.0
  0
VISUALSTYLE
  5
3A
102
{ACAD_REACTORS
330
2A
102
}
330
2A
100
AcDbVisualStyle
  2
ColorChange
 70
    16
 71
     2
 72
     2
 73
     3
 90
        0
 40
-0.6
 41
-30.0
 62
     5
 63
     8
421
  8421504
 74
     1
 91
        4
 64
     7
 65
   257
 75
     1
175
     1
 42
1.0
 92
        8
 66
     8
424
  8421504
 43
1.0
 76
     1
 77
     6
 78
     2
 67
     7
 79
     5
170
     0
171
     0
290
     0
174
     0
 93
        1
 44
0.0
173
     0
291
     1
 45
0.0
  0
VISUALSTYLE
  5
34
102
{ACAD_REACTORS
330
2A
102
}
330
2A
100
AcDbVisualStyle
  2
Conceptual
 70
     9
 71
     3
 72
     2
 73
     0
 90
        0
 40
-0.6
 41
-30.0
 62
     5
 63
     7
421
 16777215
 74
     2
 91
        2
 64
     7
 65
   257
 75
     1
175
     1
 42
40.0
 92
        8
 66
     7
 43
1.0
 76
     1
 77
     6
 78
     2
 67
     7
 79
     3
170
     0
171
     0
290
     0
174
     0
 93
        1
 44
0.0
173
     0
291
     0
 45
0.0
  0
VISUALSTYLE
  5
35
102
{ACAD_REACTORS
330
2A
102
}
330
2A
100
AcDbVisualStyle
  2
Dim
 70
    11
 71
     2
 72
     2
 73
     0
 90
        0
 40
-0.6
 41
-30.0
 62
     5
 63
     7
421
 16777215
 74
     1
 91
        4
 64
     7
 65
   257
 75
     1
175
     1
 42
1.0
 92
        8
 66
     7
 43
1.0
 76
     1
 77
     6
 78
     2
 67
     7
 79
     5
170
     0
171
     0
290
     0
174
     0
 93
        1
 44
-50.0
173
     0
291
     1
 45
0.0
  0
VISUALSTYLE
  5
39
102
{ACAD_REACTORS
330
2A
102
}
330
2A
100
AcDbVisualStyle
  2
Facepattern
 70
    15
 71
     2
 72
     2
 73
     0
 90
        0
 40
-0.6
 41
-30.0
 62
     5
 63
     7
421
 16777215
 74
     1
 91
        4
 64
     7
 65
   257
 75
     1
175
     1
 42
1.0
 92
        8
 66
     7
 43
1.0
 76
     1
 77
     6
 78
     2
 67
     7
 79
     5
170
     0
171
     0
290
     0
174
     0
 93
        1
 44
0.0
173
     0
291
     1
 45
0.0
  0
VISUALSTYLE
  5
2B
102
{ACAD_REACTORS
330
2A
102
}
330
2A
100
AcDbVisualStyle
  2
Flat
 70
     0
 71
     2
 72
     1
 73
     1
 90
        2
 40
-0.6
 41
30.0
 62
     5
 63
     7
421
 16777215
 74
     0
 91
        4
 64
     7
 65
   257
 75
     1
175
     1
 42
1.0
 92
        8
 66
     7
 43
1.0
 76
     1
 77
     6
 78
     2
 67
     7
 79
     5
170
     0
171
     0
290
     0
174
     0
 93
       13
 44
0.0
173
     0
291
     1
 45
0.0
  0
VISUALSTYLE
  5
2C
102
{ACAD_REACTORS
330
2A
102
}
330
2A
100
AcDbVisualStyle
  2
FlatWithEdges
 70
     1
 71
     2
 72
     1
 73
     1
 90
        2
 40
-0.6
 41
30.0
 62
     5
 63
     7
421
 16777215
 74
     1
 91
        4
 64
     7
 65
   257
 75
     1
175
     1
 42
1.0
 92
        0
 66
   257
 43
1.0
 76
     1
 77
     6
 78
     2
 67
     7
 79
     5
170
     0
171
     0
290
     0
174
     0
 93
       13
 44
0.0
173
     0
291
     1
 45
0.0
  0
VISUALSTYLE
  5
2D
102
{ACAD_REACTORS
330
2A
102
}
330
2A
100
AcDbVisualStyle
  2
Gouraud
 70
     2
 71
     2
 72
     2
 73
     1
 90
        2
 40
-0.6
 41
30.0
 62
     5
 63
     7
421
 16777215
 74
     0
 91
        4
 64
     7
 65
   257
 75
     1
175
     1
 42
1.0
 92
        0
 66
     7
 43
1.0
 76
     1
 77
     6
 78
     2
 67
     7
 79
     5
170
     0
171
     0
290
     0
174
     0
 93
       13
 44
0.0
173
     0
291
     1
 45
0.0
  0
VISUALSTYLE
  5
2E
102
{ACAD_REACTORS
330
2A
102
}
330
2A
100
AcDbVisualStyle
  2
GouraudWithEdges
 70
     3
 71
     2
 72
     2
 73
     1
 90
        2
 40
-0.6
 41
30.0
 62
     5
 63
     7
421
 16777215
 74
     1
 91
        4
 64
     7
 65
   257
 75
     1
175
     1
 42
1.0
 92
        0
 66
   257
 43
1.0
 76
     1
 77
     6
 78
     2
 67
     7
 79
     5
170
     0
171
     0
290
     0
174
     0
 93
       13
 44
0.0
173
     0
291
     1
 45
0.0
  0
VISUALSTYLE
  5
38
102
{ACAD_REACTORS
330
2A
102
}
330
2A
100
AcDbVisualStyle
  2
Linepattern
 70
    14
 71
     2
 72
     2
 73
     0
 90
        0
 40
-0.6
 41
-30.0
 62
     5
 63
     7
421
 16777215
 74
     1
 91
        4
 64
     7
 65
   257
 75
     7
175
     7
 42
1.0
 92
        8
 66
     7
 43
1.0
 76
     1
 77
     6
 78
     2
 67
     7
 79
     5
170
     0
171
     0
290
     0
174
     0
 93
        1
 44
0.0
173
     0
291
     1
 45
0.0
  0
VISUALSTYLE
  5
33
102
{ACAD_REACTORS
330
2A
102
}
330
2A
100
AcDbVisualStyle
  2
Realistic
 70
     8
 71
     2
 72
     2
 73
     0
 90
        0
 40
-0.6
 41
-30.0
 62
     5
 63
     7
421
 16777215
 74
     1
 91
        0
 64
     7
 65
   257
 75
     1
175
     1
 42
1.0
 92
        8
 66
     8
424
  7895160
 43
1.0
 76
     1
 77
     6
 78
     2
 67
     7
 79
     5
170
     0
171
     0
290
     0
174
     0
 93
       13
 44
0.0
173
     0
291
     0
 45
0.0
  0
VISUALSTYLE
  5
37
102
{ACAD_REACTORS
330
2A
102
}
330
2A
100
AcDbVisualStyle
  2
Thicken
 70
    13
 71
     2
 72
     2
 73
     0
 90
        0
 40
-0.6
 41
-30.0
 62
     5
 63
     7
421
 16777215
 74
     1
 91
        4
 64
     7
 65
   257
 75
     1
175
     1
 42
1.0
 92
       12
 66
     7
 43
1.0
 76
     1
 77
     6
 78
     2
 67
     7
 79
     5
170
     0
171
     0
290
     0
174
     0
 93
        1
 44
0.0
173
     0
291
     1
 45
0.0
  0
DICTIONARY
  5
A4
330
A3
100
AcDbDictionary
280
     1
281
     1
  3
TC_OPTIONAL_DATA
360
A5
  0
DICTIONARY
  5
1F5
330
1F4
100
AcDbDictionary
280
     1
281
     1
  3
TC_OPTIONAL_DATA
360
1F6
  0
DICTIONARY
  5
1FD
330
1FC
100
AcDbDictionary
280
     1
281
     1
  3
TC_OPTIONAL_DATA
360
1FE
  0
DICTIONARY
  5
203
330
202
100
AcDbDictionary
280
     1
281
     1
  3
TC_OPTIONAL_DATA
360
204
  0
DICTIONARY
  5
212
330
211
100
AcDbDictionary
280
     1
281
     1
  3
TC_OPTIONAL_DATA
360
213
  0
DICTIONARY
  5
218
330
217
100
AcDbDictionary
280
     1
281
     1
  3
TC_OPTIONAL_DATA
360
219
  0
DICTIONARY
  5
21F
330
21E
100
AcDbDictionary
280
     1
281
     1
  3
TC_OPTIONAL_DATA
360
220
  0
DICTIONARY
  5
225
330
224
100
AcDbDictionary
280
     1
281
     1
  3
TC_OPTIONAL_DATA
360
226
  0
DICTIONARY
  5
233
330
232
100
AcDbDictionary
280
     1
281
     1
  3
TC_OPTIONAL_DATA
360
234
  0
DICTIONARY
  5
252
330
251
100
AcDbDictionary
280
     1
281
     1
  3
TC_OPTIONAL_DATA
360
253
  0
DICTIONARY
  5
266
330
265
100
AcDbDictionary
280
     1
281
     1
  3
TC_OPTIONAL_DATA
360
267
  0
DICTIONARY
  5
26E
330
26D
100
AcDbDictionary
280
     1
281
     1
  3
TC_OPTIONAL_DATA
360
26F
  0
DICTIONARY
  5
20C
330
20B
100
AcDbDictionary
280
     1
281
     1
  3
TC_OPTIONAL_DATA
360
20D
  0
DICTIONARY
  5
22D
330
22C
100
AcDbDictionary
280
     1
281
     1
  3
TC_OPTIONAL_DATA
360
22E
  0
DICTIONARY
  5
240
330
23F
100
AcDbDictionary
280
     1
281
     1
  3
TC_OPTIONAL_DATA
360
241
  0
DICTIONARY
  5
249
330
248
100
AcDbDictionary
280
     1
281
     1
  3
TC_OPTIONAL_DATA
360
24A
  0
DICTIONARY
  5
274
330
273
100
AcDbDictionary
280
     1
281
     1
  3
TC_OPTIONAL_DATA
360
275
  0
DICTIONARY
  5
27A
330
279
100
AcDbDictionary
280
     1
281
     1
  3
TC_OPTIONAL_DATA
360
27B
  0
DICTIONARY
  5
27F
330
27E
100
AcDbDictionary
280
     1
281
     1
  3
TC_OPTIONAL_DATA
360
280
  0
DICTIONARY
  5
284
330
283
100
AcDbDictionary
280
     1
281
     1
  3
TC_OPTIONAL_DATA
360
285
  0
DICTIONARY
  5
289
330
288
100
AcDbDictionary
280
     1
281
     1
  3
TC_OPTIONAL_DATA
360
28A
  0
DICTIONARY
  5
28E
330
28D
100
AcDbDictionary
280
     1
281
     1
  3
TC_OPTIONAL_DATA
360
28F
  0
DICTIONARY
  5
293
330
292
100
AcDbDictionary
280
     1
281
     1
  3
TC_OPTIONAL_DATA
360
294
  0
TCOPTIONALDATA
  5
A5
102
{ACAD_REACTORS
330
A4
102
}
330
A4
100
TcOptionalData
 70
     1
 70
     2
 10
28930.5302734375
 20
9011.318359375
 30
0.0
  0
TCOPTIONALDATA
  5
1F6
102
{ACAD_REACTORS
330
1F5
102
}
330
1F5
100
TcOptionalData
 70
     1
 70
     2
 10
37619.26162509306
 20
21503.52079727005
 30
0.0
  0
TCOPTIONALDATA
  5
1FE
102
{ACAD_REACTORS
330
1FD
102
}
330
1FD
100
TcOptionalData
 70
     1
 70
     2
 10
37610.96234010631
 20
14938.69511523639
 30
0.0
  0
TCOPTIONALDATA
  5
204
102
{ACAD_REACTORS
330
203
102
}
330
203
100
TcOptionalData
 70
     1
 70
     2
 10
33875.51850119128
 20
11679.62492488338
 30
0.0
  0
TCOPTIONALDATA
  5
213
102
{ACAD_REACTORS
330
212
102
}
330
212
100
TcOptionalData
 70
     1
 70
     2
 10
38424.30428757559
 20
13818.27602538712
 30
0.0
  0
TCOPTIONALDATA
  5
219
102
{ACAD_REACTORS
330
218
102
}
330
218
100
TcOptionalData
 70
     1
 70
     2
 10
20241.79719486699
 20
21503.52079727006
 30
0.0
  0
TCOPTIONALDATA
  5
220
102
{ACAD_REACTORS
330
21F
102
}
330
21F
100
TcOptionalData
 70
     1
 70
     2
 10
20250.09647985375
 20
14938.69511523639
 30
0.0
  0
TCOPTIONALDATA
  5
226
102
{ACAD_REACTORS
330
225
102
}
330
225
100
TcOptionalData
 70
     1
 70
     2
 10
23985.54031876878
 20
11679.62492488338
 30
0.0
  0
TCOPTIONALDATA
  5
234
102
{ACAD_REACTORS
330
233
102
}
330
233
100
TcOptionalData
 70
     1
 70
     2
 10
19436.75453238447
 20
13818.27602538712
 30
0.0
  0
TCOPTIONALDATA
  5
253
102
{ACAD_REACTORS
330
252
102
}
330
252
100
TcOptionalData
 70
     1
 70
     2
 10
26429.60333392663
 20
8841.607212600227
 30
0.0
  0
TCOPTIONALDATA
  5
267
102
{ACAD_REACTORS
330
266
102
}
330
266
100
TcOptionalData
 70
     1
 70
     2
 10
18455.94719329744
 20
13768.47946982488
 30
0.0
  0
TCOPTIONALDATA
  5
26F
102
{ACAD_REACTORS
330
26E
102
}
330
26E
100
TcOptionalData
 70
     1
 70
     2
 10
39351.76116550221
 20
13818.2761976044
 30
0.0
  0
TCOPTIONALDATA
  5
20D
102
{ACAD_REACTORS
330
20C
102
}
330
20C
100
TcOptionalData
 70
     1
 70
     2
 10
34035.28046898925
 20
24348.6588555229
 30
0.0
  0
TCOPTIONALDATA
  5
22E
102
{ACAD_REACTORS
330
22D
102
}
330
22D
100
TcOptionalData
 70
     1
 70
     2
 10
23825.7783509708
 20
24348.65885552291
 30
0.0
  0
TCOPTIONALDATA
  5
241
102
{ACAD_REACTORS
330
240
102
}
330
240
100
TcOptionalData
 70
     1
 70
     2
 10
29640.95592237808
 20
9815.727674932983
 30
0.0
  0
TCOPTIONALDATA
  5
24A
102
{ACAD_REACTORS
330
249
102
}
330
249
100
TcOptionalData
 70
     1
 70
     2
 10
26429.60333392663
 20
9498.682772085383
 30
0.0
  0
TCOPTIONALDATA
  5
275
102
{ACAD_REACTORS
330
274
102
}
330
274
100
TcOptionalData
 70
     1
 70
     2
 10
20221.644194539
 20
22439.42408972356
 30
0.0
  0
TCOPTIONALDATA
  5
27B
102
{ACAD_REACTORS
330
27A
102
}
330
27A
100
TcOptionalData
 70
     1
 70
     2
 10
37608.88722610306
 20
22422.82529006118
 30
0.0
  0
TCOPTIONALDATA
  5
280
102
{ACAD_REACTORS
330
27F
102
}
330
27F
100
TcOptionalData
 70
     1
 70
     2
 10
37658.68362509019
 20
18621.70016737745
 30
0.0
  0
TCOPTIONALDATA
  5
285
102
{ACAD_REACTORS
330
284
102
}
330
284
100
TcOptionalData
 70
     1
 70
     2
 10
20161.47344945616
 20
18538.70616906558
 30
0.0
  0
TCOPTIONALDATA
  5
28A
102
{ACAD_REACTORS
330
289
102
}
330
289
100
TcOptionalData
 70
     1
 70
     2
 10
19879.2938551958
 20
13799.7488654577
 30
0.0
  0
TCOPTIONALDATA
  5
28F
102
{ACAD_REACTORS
330
28E
102
}
330
28E
100
TcOptionalData
 70
     1
 70
     2
 10
38880.77027415583
 20
13834.87463591153
 30
0.0
  0
TCOPTIONALDATA
  5
294
102
{ACAD_REACTORS
330
293
102
}
330
293
100
TcOptionalData
 70
     1
 70
     2
 10
28570.83915616353
 20
12179.14455208174
 30
0.0
  0
ENDSEC
  0
SECTION
  2
THUMBNAILIMAGE
 90
    16364
310
28000000B40000005500000001000800000000000000000000000000000000000000000000000000FFFFFF000000FF0000FFFF0000FF0000FFFF0000FF000000FF00FF000000000080808000C0C0C0000000FF007F7FFF000000A5005252A50000007F003F3F7F0000004C0026264C000000260013132600003FFF007F9FFF
310
000029A5005267A500001F7F003F4F7F0000134C00262F4C000009260013172600007FFF007FBFFF000052A500527CA500003F7F003F5F7F0000264C0026394C0000132600131C260000BFFF007FDFFF00007CA5005291A500005F7F003F6F7F0000394C0026424C00001C26001321260000FFFF007FFFFF0000A5A50052A5
310
A500007F7F003F7F7F00004C4C00264C4C00002626001326260000FFBF007FFFDF0000A57C0052A59100007F5F003F7F6F00004C3900264C420000261C001326210000FF7F007FFFBF0000A5520052A57C00007F3F003F7F5F00004C2600264C39000026130013261C0000FF3F007FFF9F0000A5290052A56700007F1F003F
310
7F4F00004C1300264C2F00002609001326170000FF00007FFF7F0000A5000052A55200007F00003F7F3F00004C0000264C260000260000132613003FFF00009FFF7F0029A5000067A552001F7F00004F7F3F00134C00002F4C260009260000172613007FFF0000BFFF7F0052A500007CA552003F7F00005F7F3F00264C0000
310
394C2600132600001C261300BFFF0000DFFF7F007CA5000091A552005F7F00006F7F3F00394C0000424C26001C26000021261300FFFF0000FFFF7F00A5A50000A5A552007F7F00007F7F3F004C4C00004C4C26002626000026261300FFBF0000FFDF7F00A57C0000A59152007F5F00007F6F3F004C3900004C422600261C00
310
0026211300FF7F0000FFBF7F00A5520000A57C52007F3F00007F5F3F004C2600004C39260026130000261C1300FF3F0000FF9F7F00A5290000A56752007F1F00007F4F3F004C1300004C2F26002609000026171300FF000000FF7F7F00A5000000A55252007F0000007F3F3F004C0000004C2626002600000026131300FF00
310
3F00FF7F9F00A5002900A55267007F001F007F3F4F004C0013004C262F002600090026131700FF007F00FF7FBF00A5005200A5527C007F003F007F3F5F004C0026004C2639002600130026131C00FF00BF00FF7FDF00A5007C00A55291007F005F007F3F6F004C0039004C26420026001C0026132100FF00FF00FF7FFF00A5
310
00A500A552A5007F007F007F3F7F004C004C004C264C002600260026132600BF00FF00DF7FFF007C00A5009152A5005F007F006F3F7F0039004C0042264C001C002600211326007F00FF00BF7FFF005200A5007C52A5003F007F005F3F7F0026004C0039264C00130026001C1326003F00FF009F7FFF002900A5006752A500
310
1F007F004F3F7F0013004C002F264C000900260017132600000000002D2D2D005B5B5B0089898900B7B7B700B3B3B30007070707070707070707070707070707070707070707070707070707070707070707070707070707070707070707070707070707070707070707070707070707070707070707070707070707070707
310
07070707070707070707070707070707070707070707070707070707070707070707070707070707070707070707070707070707070707070707070707070707070707070707070707070707070707070707070707070707070707070707070707070707070707070707070707070707070707070707070707070707070707
310
07070707070707070707070707070707070707070707070707070707070707070707070707070707070707070707070707070707070707070707070707070707070707070707070707070707070707070707070707070707070707070707070707070707070707070707070707070707070707070707070707070707070707
310
07070707070707070707070707070707070707070707070707070707070707070707070707070707070707070707070707070707070707070707070707070707070707070707070707070707070707070707070707070707070707070707070707070707070707070707070707070707070707070707070707070707070707
310
07070707070707070707070707070707070707070707070707070707070707070707070707070707070707070707070707070707070707070707070707070707070707070707070707070707070707070707070707070707070707070707070707070707070707070707070707070707070707070707070707070707070707
310
07070707070707070707070707070707070707070707070707070707070707070707070707070707070707070707070707070707070707070707070707070707070707070707070707070707070707070707070707070707070707070707070707070707070707070707070707070707070707070707070707070707070707
310
07070707070707070707070707070707070707070707070707070707070707070707070707070707070707070707070707070707070707070707070707070707070707070707070707070707070707070707070707070707070707070707070707070707070707070707070707070707070707070707070707070707070707
310
07070707070707070707070707070707070707070707070707070707070707070707070707070707070707070707070707070707070707070707070707070707070707070707070707070707070707070707070707070707070707070707070707070707070707070707070707070707070707070707070707070707070707
310
07070707070707070707070707070707070707070707070707070707070707070707070707070707070707070707070707070707070707070707070707070707070707070707070707070707070707070707070707070707070707070707070707070707070707070707070707070707070707070707070707070707070707
310
07070707070707070707070707070707070707070707070707070707070707070707070707070707070707070707070707070707070707070707070707070707070707070707070707070707070707070707070707070707070707070707070707070707070707070707070707070707070707070707070707070707070707
310
07070707070707070707070707070707070707070707070707070707070707070707070707070707070707070707070707070707070707070707070707070707070707070707070707070707070707070707070707070707070707070707070707070707070707070707070707070707070707070707070707070707070707
310
07070707070707070707070707070707070707070707070707070707070707070707070707070707070707070707070707070707070707070707070707070707070707070707070707070707070707070707070707070707070707070707070707070707070707070707070707070707070707070707070707070707070707
310
07070707070707070707070707070707070707070707070707070707070707070707070707070707070707070707070707070707070707070707070707070707070707070707070707070707070707070707070707070707070707070707070707070707070707070707070707070707070707070707070707070707070707
310
07070707070707070707070707070707070707070707070707070707070707070707070707070707070707070707070707070707070707070707070707070707070707070707070707070707070707070707070707070707070707070707070707070707070707070707070707070707070707070707070707070707070707
310
07070707070707070707070707070707070707070707070707070707070707070707070707070707070707070707070707070707070707070707070707070707070707070707070707070707070707070707070707070707070707070707070707070707070707070707070707070707070707070707070707070707070707
310
07070707070707070707070707070707070707070707070707070707070707070707070707070707070707070707070707070707070707070707070707070707070707070707070707070707070707070707070707070707070707070707070707070707070707070707070707070707070707070707070707070707070707
310
07070707070707070707070707070707070707070707070707070707070707070707070707070707070707070707070707070707070707070707070707070707070707070707070707070707070707070707070707070707070707070707070707070707070707070707070707070707070707070707070707070707070707
310
07070707070707070707070707070707070707070707070707070707070707070707070707070707070707070707070707070707070707070707070707070707070707070707070707070707070707070707070707070707070707070707070707070707070707070707070707070707070707070707070707070707070707
310
07070707070707070707070707070707070707070707070707070707070707070707070707070707070707070707070707070707070707070707070707070707070707070707070707070707070707070707070707070707070707070707070707070707070707070707070707070707070707070707070707070707070707
310
07070707070707070707070707070707070707070707070707070707070707070707070707070707070707070707070707070707070707070707070707070707070707070707070707070707070707070707070707070707070707070707070707070707070707070707070707070707070707070707070707070707070707
310
07070707070707070707070707070707070707070707070707070707070707070707070707070707070707070707070707070707070707070707070707070707070707070707070707070707070707070707070707070707070707070707070707070707070707070707070707070707070707070707070707070707070707
310
07070707070707070707070707070707070707070707070707070707070707070707070707070707070707070707070707070707070707070707070707070707070707070707070707070707070707070707070707070707070707070707070707070707070707070707070707070707070707070707070707070707070707
310
07070707070707070707070707070707070707070707070707070707070707070707070707070707070707070707070707070707070707070707070707070707070707070707070707070707070707070707070707070707070707070707070707070707070707070707070707070707070707070707070707070707070707
310
07070707070707070707070707070707070707070707070707070707070707070707070707070707070707070707070707070707070707070707070707070707070707070707070707070707070707070707070707070707070707070707070707070707070707070707070707070707070707070707070707070707070707
310
07070707070707070707070707070707070707070707070707070707070707070707070707070707070707070707070707070707070707070707070707070707070707070707070707070707070707070707070707070707070707070707070707070707070707070707070707070707070707070707070707070707070707
310
07070707070707070707070707070707070707070707070707070707070707070707070707070707070707070707070707070707070707070707070707070707070707070707070707070707070707070707070707070707070707070707070707070707070707070707070707070707070707070707070707070707070707
310
07070707070707070707070707070707070707070707070707070707070707070707070707070707070707070707070707070707070707070707070707070707070707070707070707070707070707070707070707070707070707070707070707070707070707070707070707070707070707070707070707070707070707
310
07070707070707070707070707070707070707070707070707070707070707070707070707070707070707070707070707070707070707070707070707070707070707070707070707070707070707070707070707070707070707070707070707070707070707070707070707070707070707070707070707070707070707
310
07070707070707070707070707070707070707070707070707070707070707070707070707070707070707070707070707070707070707070707070707070707070707070707070707070707070707070707070707070707070707070707070707070707070707070707070707070707070707070707070707070707070707
310
07070707070707070707070707070707070707070707070707070707070707070707070707070707070707070707070707070707070707070707070707070707070707070707070707070707070707070707070707070707070707070707070707070707070707070707070707070707070707070707070707070707070707
310
07070707070707070707070707070707070707070707070707070707070707070707070707070707070707070707070707070707070707070707070707070707070707070707070707070707070707070707070707070707070707070707070707070707070707070707070707070707070707070707070707070707070707
310
07070707070707070707070707070707070707070707070707070707070707070707070707070707070707070707070707070707070707070707070707070707070707070707070707070707070707070707070707070707070707070707070707070707070707070707070707070707070707070707070707070707070707
310
07070707070707070707070707070707070707070707070707070707070707070707070707070707070707070707070707070707070707070707070707070707070707070707070707070707070707070707070707070707070707070707070707070707070707070707070707070707070707070707070707070707070707
310
07070707070707070707070707070707070707070707070707070707070707070707070707070707070707070707070707070707070707070707070707070707070707070707070707070707070707070707070707070707070707070707070707070707070707070707070707070707070707070707070707070707070707
310
07070707070707070707070707070707070707070707070707070707070707070707070707070707070707070707070707070707070707070707070707070707070707070707070707070707070707070707070707070707070707070707070707070707070707070707070707070707070707070707070707070707070707
310
07070707070707070707070707070707070707070707070707070707070707070707070707070707070707070707070707070707070707070707070707070707070707070707070707070707070707070707070707070707070707070707070707070707070707070707070707070707070707070707070707070707070707
310
07070707070707070707070707070707070707070707070707070707070707070707070707070707070707070707070707070707070707070707070707070707070707070707070707070707070707070707070707070707070707070707070707070707070707070707070707070707070707070707070707070707070707
310
07070707070707070707070707070707070707070707070707070707070707070707070707070707070707070707070707070707070707070707070707070707070707070707070707070707070707070707070707070707070707070707070707070707070707070707070707070707070707070707070707070707070707
310
07070707070707070707070707070707070707070707070707070707070707070707070707070707070707070707070707070707070707070707070707070707070707070707070707070707070707070707070707070707070707070707070707070707070707070707070707070707070707070707070707070707070707
310
07070707070707070707070707070707070707070707070707070707070707070707070707070707070707070707070707070707070707070707070707070707070707070707070707070707070707070707070707070707070707070707070707070707070707070707070707070707070707070707070707070707070707
310
07070707070707070707070707070707070707070707070707070707070707070707070707070707070707070707070707070707070707070707070707070707070707070707070707070707070707070707070707070707070707070707070707070707070707070707070707070707070707070707070707070707070707
310
07070707070707070707070707070707070707070707070707070707070707070707070707070707070707070707070707070707070707070707070707070707070707070707070707070707070707070707070707070707070707070707070707070707070707070707070707070707070707070707070707070707070707
310
07070707070707070707070707070707070707070707070707070707070707070707070707070707070707070707070707070707070707070707070707070707070707070707070707070707070707070707070707070707070707070707070707070707070707070707070707070707070707070707070707070707070707
310
07070707070707070707070707070707070707070707070707070707070707070707070707070707070707070707070707070707070707070707070707070707070707070707070707070707070707070707070707070707070707070707070707070707070707070707070707070707070707070707070707070707070707
310
07070707070707070707070707070707070707070707070707070707070707070707070707070707070707070707070707070707070707070707070707070707070707070707070707070707070707070707070707070707070707070707070707070707070707070707070707070707070707070707070707070707070707
310
07070707070707070707070707070707070707070707070707070707070707070707070707070707070707070707070707070707070707070707070707070707070707070707070707070707070707070707070707070707070707070707070707070707070707070707070707070707070707070707070707070707070707
310
07070707070707070707070707070707070707070707070707070707070707070707070707070707070707070707070707070707070707070707070707070707070707070707070707070707070707070707070707070707070707070707070707070707070707070707070707070707070707070707070707070707070707
310
07070707070707070707070707070707070707070707070707070707070707070707070707070707070707070707070707070707070707070707070707070707070707070707070707070707070707070707070707070707070707070707070707070707070707070707070707070707070707070707070707070707070707
310
07070707070707070707070707070707070707070707070707070707070707070707070707070707070707070707070707070707070707070707070707070707070707070707070707070707070707070707070707070707070707070707070707070707070707070707070707070707070707070707070707070707070707
310
07070707070707070707070707070707070707070707070707070707070707070707070707070707070707070707070707070707070707070707070707070707070707070707070707070707070707070707070707070707070707070707070707070707070707070707070707070707070707070707070707070707070707
310
07070707070707070707070707070707070707070707070707070707070707070707070707070707070707070707070707070707070707070707070707070707070707070707070707070707070707070707070707070707070707070707070707070707070707070707070707070707070707070707070707070707070707
310
07070707070707070707070707070707070707070707070707070707070707070707070707070707070707070707070707070707070707070707070707070707070707070707070707070707070707070707070707070707070707070707070707070707070707070707070707070707070707070707070707070707070707
310
07070707070707070707070707070707070707070707070707070707070707070707070707070707070707070707070707070707070707070707070707070707070707070707070707070707070707070707070707070707070707070707070707070707070707070707070707070707070707070707070707070707070707
310
07070707070707070707070707070707070707070707070707070707070707070707070707070707070707070707070707070707070707070707070707070707070707070707070707070707070707070707070707070707070707070707070707070707070707070707070707070707070707070707070707070707070707
310
07070707070707070707070707070707070707070707070707070707070707070707070707070707070707070707070707070707070707070707070707070707070707070707070707070707070707070707070707070707070707070707070707070707070707070707070707070707070707070707070707070707070707
310
07070707070707070707070707070707070707070707070707070707070707070707070707070707070707070707070707070707070707070707070707070707070707070707070707070707070707070707070707070707070707070707070707070707070707070707070707070707070707070707070707070707070707
310
07070707070707070707070707070707070707070707070707070707070707070707070707070707070707070707070707070707070707070707070707070707070707070707070707070707070707070707070707070707070707070707070707070707070707070707070707070707070707070707070707070707070707
310
07070707070707070707070707070707070707070707070707070707070707070707070707070707070707070707070707070707070707070707070707070707070707070707070707070707070707070707070707070707070707070707070707070707070707070707070707070707070707070707070707070707070707
310
07070707070707070707070707070707070707070707070707070707070707070707070707070707070707070707070707070707070707070707070707070707070707070707070707070707070707070707070707070707070707070707070707070707070707070707070707070707070707070707070707070707070707
310
07070707070707070707070707070707070707070707070707070707070707070707070707070707070707070707070707070707070707070707070707070707070707070707070707070707070707070707070707070707070707070707070707070707070707070707070707070707070707070707070707070707070707
310
07070707070707070707070707070707070707070707070707070707070707070707070707070707070707070707070707070707070707070707070707070707070707070707070707070707070707070707070707070707070707070707070707070707070707070707070707070707070707070707070707070707070707
310
07070707070707070707070707070707070707070707070707070707070707070707070707070707070707070707070707070707070707070707070707070707070707070707070707070707070707070707070707070707070707070707070707070707070707070707070707070707070707070707070707070707070707
310
07070707070707070707070707070707070707070707070707070707070707070707070707070707070707070707070707070707070707070707070707070707070707070707070707070707070707070707070707070707070707070707070707070707070707070707070707070707070707070707070707070707070707
310
07070707070707070707070707070707070707070707070707070707070707070707070707070707070707070707070707070707070707070707070707070707070707070707070707070707070707070707070707070707070707070707070707070707070707070707070707070707070707070707070707070707070707
310
07070707070707070707070707070707070707070707070707070707070707070707070707070707070707070707070707070707070707070707070707070707070707070707070707070707070707070707070707070707070707070707070707070707070707070707070707070707070707070707070707070707070707
310
07070707070707070707070707070707070707070707070707070707070707070707070707070707070707070707070707070707070707070707070707070707070707070707070707070707070707070707070707070707070707070707070707070707070707070707070707070707070707070707070707070707070707
310
07070707070707070707070707070707070707070707070707070707070707070707070707070707070707070707070707070707070707070707070707070707070707070707070707070707070707070707070707070707070707070707070707070707070707070707070707070707070707070707070707070707070707
310
07070707070707070707070707070707070707070707070707070707070707070707070707070707070707070707070707070707070707070707070707070707070707070707070707070707070707070707070707070707070707070707070707070707070707070707070707070707070707070707070707070707070707
310
07070707070707070707070707070707070707070707070707070707070707070707070707070707070707070707070707070707070707070707070707070707070707070707070707070707070707070707070707070707070707070707070707070707070707070707070707070707070707070707070707070707070707
310
07070707070707070707070707070707070707070707070707070707070707070707070707070707070707070707070707070707070707070707070707070707070707070707070707070707070707070707070707070707070707070707070707070707070707070707070707070707070707070707070707070707070707
310
07070707070707070707070707070707070707070707070707070707070707070707070707070707070707070707070707070707070707070707070707070707070707070707070707070707070707070707070707070707070707070707070707070707070707070707070707070707070707070707070707070707070707
310
07070707070707070707070707070707070707070707070707070707070707070707070707070707070707070707070707070707070707070707070707070707070707070707070707070707070707070707070707070707070707070707070707070707070707070707070707070707070707070707070707070707070707
310
07070707070707070707070707070707070707070707070707070707070707070707070707070707070707070707070707070707070707070707070707070707070707070707070707070707070707070707070707070707070707070707070707070707070707070707070707070707070707070707070707070707070707
310
07070707070707070707070707070707070707070707070707070707070707070707070707070707070707070707070707070707070707070707070707070707070707070707070707070707070707070707070707070707070707070707070707070707070707070707070707070707070707070707070707070707070707
310
07070707070707070707070707070707070707070707070707070707070707070707070707070707070707070707070707070707070707070707070707070707070707070707070707070707070707070707070707070707070707070707070707070707070707070707070707070707070707070707070707070707070707
310
07070707070707070707070707070707070707070707070707070707070707070707070707070707070707070707070707070707070707070707070707070707070707070707070707070707070707070707070707070707070707070707070707070707070707070707070707070707070707070707070707070707070707
310
07070707070707070707070707070707070707070707070707070707070707070707070707070707070707070707070707070707070707070707070707070707070707070707070707070707070707070707070707070707070707070707070707070707070707070707070707070707070707070707070707070707070707
310
07070707070707070707070707070707070707070707070707070707070707070707070707070707070707070707070707070707070707070707070707070707070707070707070707070707070707070707070707070707070707070707070707070707070707070707070707070707070707070707070707070707070707
310
07070707070707070707070707070707070707070707070707070707070707070707070707070707070707070707070707070707070707070707070707070707070707070707070707070707070707070707070707070707070707070707070707070707070707070707070707070707070707070707070707070707070707
310
07070707070707070707070707070707070707070707070707070707070707070707070707070707070707070707070707070707070707070707070707070707070707070707070707070707070707070707070707070707070707070707070707070707070707070707070707070707070707070707070707070707070707
310
07070707070707070707070707070707070707070707070707070707070707070707070707070707070707070707070707070707070707070707070707070707070707070707070707070707070707070707070707070707070707070707070707070707070707070707070707070707070707070707070707070707070707
310
07070707070707070707070707070707070707070707070707070707070707070707070707070707070707070707070707070707070707070707070707070707070707070707070707070707070707070707070707070707070707070707070707070707070707070707070707070707070707070707070707070707070707
310
07070707070707070707070707070707070707070707070707070707070707070707070707070707070707070707070707070707070707070707070707070707070707070707070707070707070707070707070707070707070707070707070707070707070707070707070707070707070707070707070707070707070707
310
07070707070707070707070707070707070707070707070707070707070707070707070707070707070707070707070707070707070707070707070707070707070707070707070707070707070707070707070707070707070707070707070707070707070707070707070707070707070707070707070707070707070707
310
07070707070707070707070707070707070707070707070707070707070707070707070707070707070707070707070707070707070707070707070707070707070707070707070707070707070707070707070707070707070707070707070707070707070707070707070707070707070707070707070707070707070707
310
07070707070707070707070707070707070707070707070707070707070707070707070707070707070707070707070707070707070707070707070707070707070707070707070707070707070707070707070707070707070707070707070707070707070707070707070707070707070707070707070707070707070707
310
07070707070707070707070707070707070707070707070707070707070707070707070707070707070707070707070707070707070707070707070707070707070707070707070707070707070707070707070707070707070707070707070707070707070707070707070707070707070707070707070707070707070707
310
07070707070707070707070707070707070707070707070707070707070707070707070707070707070707070707070707070707070707070707070707070707070707070707070707070707070707070707070707070707070707070707070707070707070707070707070707070707070707070707070707070707070707
310
07070707070707070707070707070707070707070707070707070707070707070707070707070707070707070707070707070707070707070707070707070707070707070707070707070707070707070707070707070707070707070707070707070707070707070707070707070707070707070707070707070707070707
310
07070707070707070707070707070707070707070707070707070707070707070707070707070707070707070707070707070707070707070707070707070707070707070707070707070707070707070707070707070707070707070707070707070707070707070707070707070707070707070707070707070707070707
310
07070707070707070707070707070707070707070707070707070707070707070707070707070707070707070707070707070707070707070707070707070707070707070707070707070707070707070707070707070707070707070707070707070707070707070707070707070707070707070707070707070707070707
310
07070707070707070707070707070707070707070707070707070707070707070707070707070707070707070707070707070707070707070707070707070707070707070707070707070707070707070707070707070707070707070707070707070707070707070707070707070707070707070707070707070707070707
310
07070707070707070707070707070707070707070707070707070707070707070707070707070707070707070707070707070707070707070707070707070707070707070707070707070707070707070707070707070707070707070707070707070707070707070707070707070707070707070707070707070707070707
310
07070707070707070707070707070707070707070707070707070707070707070707070707070707070707070707070707070707070707070707070707070707070707070707070707070707070707070707070707070707070707070707070707070707070707070707070707070707070707070707070707070707070707
310
07070707070707070707070707070707070707070707070707070707070707070707070707070707070707070707070707070707070707070707070707070707070707070707070707070707070707070707070707070707070707070707070707070707070707070707070707070707070707070707070707070707070707
310
07070707070707070707070707070707070707070707070707070707070707070707070707070707070707070707070707070707070707070707070707070707070707070707070707070707070707070707070707070707070707070707070707070707070707070707070707070707070707070707070707070707070707
310
07070707070707070707070707070707070707070707070707070707070707070707070707070707070707070707070707070707070707070707070707070707070707070707070707070707070707070707070707070707070707070707070707070707070707070707070707070707070707070707070707070707070707
310
07070707070707070707070707070707070707070707070707070707070707070707070707070707070707070707070707070707070707070707070707070707070707070707070707070707070707070707070707070707070707070707070707070707070707070707070707070707070707070707070707070707070707
310
07070707070707070707070707070707070707070707070707070707070707070707070707070707070707070707070707070707070707070707070707070707070707070707070707070707070707070707070707070707070707070707070707070707070707070707070707070707070707070707070707070707070707
310
07070707070707070707070707070707070707070707070707070707070707070707070707070707070707070707070707070707070707070707070707070707070707070707070707070707070707070707070707070707070707070707070707070707070707070707070707070707070707070707070707070707070707
310
07070707070707070707070707070707070707070707070707070707070707070707070707070707070707070707070707070707070707070707070707070707070707070707070707070707070707070707070707070707070707070707070707070707070707070707070707070707070707070707070707070707070707
310
07070707070707070707070707070707070707070707070707070707070707070707070707070707070707070707070707070707070707070707070707070707070707070707070707070707070707070707070707070707070707070707070707070707070707070707070707070707070707070707070707070707070707
310
07070707070707070707070707070707070707070707070707070707070707070707070707070707070707070707070707070707070707070707070707070707070707070707070707070707070707070707070707070707070707070707070707070707070707070707070707070707070707070707070707070707070707
310
07070707070707070707070707070707070707070707070707070707070707070707070707070707070707070707070707070707070707070707070707070707070707070707070707070707070707070707070707070707070707070707070707070707070707070707070707070707070707070707070707070707070707
310
07070707070707070707070707070707070707070707070707070707070707070707070707070707070707070707070707070707070707070707070707070707070707070707070707070707070707070707070707070707070707070707070707070707070707070707070707070707070707070707070707070707070707
310
07070707070707070707070707070707070707070707070707070707070707070707070707070707070707070707070707070707070707070707070707070707070707070707070707070707070707070707070707070707070707070707070707070707070707070707070707070707070707070707070707070707070707
310
07070707070707070707070707070707070707070707070707070707070707070707070707070707070707070707070707070707070707070707070707070707070707070707070707070707070707070707070707070707070707070707070707070707070707070707070707070707070707070707070707070707070707
310
07070707070707070707070707070707070707070707070707070707070707070707070707070707070707070707070707070707070707070707070707070707070707070707070707070707070707070707070707070707070707070707070707070707070707070707070707070707070707070707070707070707070707
310
07070707070707070707070707070707070707070707070707070707070707070707070707070707070707070707070707070707070707070707070707070707070707070707070707070707070707070707070707070707070707070707070707070707070707070707070707070707070707070707070707070707070707
310
07070707070707070707070707070707070707070707070707070707070707070707070707070707070707070707070707070707070707070707070707070707070707070707070707070707070707070707070707070707070707070707070707070707070707070707070707070707070707070707070707070707070707
310
07070707070707070707070707070707070707070707070707070707070707070707070707070707070707070707070707070707070707070707070707070707070707070707070707070707070707070707070707070707070707070707070707070707070707070707070707070707070707070707070707070707070707
310
07070707070707070707070707070707070707070707070707070707070707070707070707070707070707070707070707070707070707070707070707070707070707070707070707070707070707070707070707070707070707070707070707070707070707070707070707070707070707070707070707070707070707
310
07070707070707070707070707070707070707070707070707070707070707070707070707070707070707070707070707070707070707070707070707070707070707070707070707070707070707070707070707070707070707070707070707070707070707070707070707070707070707070707070707070707070707
310
07070707070707070707070707070707070707070707070707070707070707070707070707070707070707070707070707070707070707070707070707070707070707070707070707070707070707070707070707070707070707070707070707070707070707070707070707070707070707070707070707070707070707
310
07070707070707070707070707070707070707070707070707070707070707070707070707070707070707070707070707070707070707070707070707070707070707070707070707070707070707070707070707070707070707070707070707070707070707070707070707070707070707070707070707070707070707
310
07070707070707070707070707070707070707070707070707070707070707070707070707070707070707070707070707070707070707070707070707070707070707070707070707070707070707070707070707070707070707070707070707070707070707070707070707070707070707070707070707070707070707
310
07070707070707070707070707070707070707070707070707070707070707070707070707070707070707070707070707070707070707070707070707070707070707070707070707070707070707070707070707070707070707070707070707070707070707070707070707070707070707070707070707070707070707
310
07070707070707070707070707070707070707070707070707070707070707070707070707070707070707070707070707070707070707070707070707070707070707070707070707070707070707070707070707070707070707070707070707070707070707070707070707070707070707070707070707070707070707
310
07070707070707070707070707070707070707070707070707070707070707070707070707070707070707070707070707070707070707070707070707070707070707070707070707070707070707070707070707070707070707070707070707070707070707070707070707070707070707070707070707070707070707
310
07070707070707070707070707070707070707070707070707070707070707070707070707070707070707070707070707070707070707070707070707070707070707070707070707070707070707070707070707070707070707070707070707070707070707070707070707070707070707070707070707070707070707
310
070707070707070707070707070707070707070707070707070707070707070707070707070707070707070707070707070707070707070707070707070707070707070707070707070707070707070707070707070707070707070707070707070707070707070707070707
  0
ENDSEC
  0
EOF
